<?xml version="1.0" standalone="no"?>
<!DOCTYPE svg PUBLIC "-//W3C//DTD SVG 1.1//EN" "http://www.w3.org/Graphics/SVG/1.1/DTD/svg11.dtd" >
<svg xmlns="http://www.w3.org/2000/svg">
<metadata></metadata>
<defs>
<font id="locatorregular" horiz-adv-x="1527" >
<font-face units-per-em="2048" ascent="1638" descent="-410" />
<missing-glyph horiz-adv-x="450" />
<glyph horiz-adv-x="2048" />
<glyph horiz-adv-x="2048" />
<glyph unicode="&#xd;" horiz-adv-x="2048" />
<glyph unicode=" "  horiz-adv-x="450" />
<glyph unicode="&#x09;" horiz-adv-x="450" />
<glyph unicode="&#xa0;" horiz-adv-x="450" />
<glyph unicode="!" horiz-adv-x="606" d="M197 0v238h213v-238h-213zM211 983v381h186v-381l-49 -614h-88z" />
<glyph unicode="&#x22;" horiz-adv-x="866" d="M174 795v569h152v-569h-152zM541 795v569h151v-569h-151z" />
<glyph unicode="#" horiz-adv-x="1409" d="M92 422l31 123h248l65 284h-248l27 123h252l94 412h133l-94 -412h356l95 412h133l-94 -412h247l-28 -123h-248l-66 -284h248l-26 -123h-250l-99 -422h-133l96 422h-354l-96 -422h-135l98 422h-252zM506 545h356l64 284h-355z" />
<glyph unicode="$" horiz-adv-x="1230" d="M123 92l41 144q279 -99 475 -99q152 0 234.5 53.5t82.5 153.5q0 46 -13 77.5t-54 64t-103 62t-174 75.5q-251 101 -346.5 193t-95.5 241q0 154 104.5 232t315.5 89v201h133v-199q202 -10 377 -67l-27 -148q-227 58 -414 58q-167 0 -236 -37t-69 -129q0 -34 7.5 -60 t26.5 -50.5t43.5 -44t68.5 -42.5t90 -43t119 -49q120 -49 194.5 -88t131 -88t80.5 -107t24 -135q0 -152 -116.5 -253t-328.5 -113v-189h-133v189q-200 14 -438 108z" />
<glyph unicode="%" horiz-adv-x="1736" d="M92 1028q0 93 38 173t113 131.5t173 51.5t172.5 -51.5t111.5 -131.5t37 -173t-37 -173t-111.5 -131.5t-172.5 -51.5t-173 51.5t-113 131.5t-38 173zM223 1028q0 -100 51 -172t142 -72t140.5 72t49.5 172t-49.5 172t-140.5 72t-142 -72t-51 -172zM420 0l735 1364h133 l-735 -1364h-133zM971 338q0 93 37 173t111.5 131.5t172.5 51.5q74 0 135.5 -30t102 -80t62.5 -113.5t22 -132.5t-22 -132.5t-62.5 -113.5t-102 -80t-135.5 -30q-98 0 -172.5 51.5t-111.5 131.5t-37 173zM1102 338q0 -101 49.5 -173.5t140.5 -72.5t142 73t51 173t-51 172 t-142 72t-140.5 -72t-49.5 -172z" />
<glyph unicode="&#x26;" horiz-adv-x="1368" d="M113 360q0 137 73.5 242.5t241.5 204.5q-82 118 -113.5 182.5t-31.5 134.5q0 121 78.5 190.5t226.5 69.5q133 0 213 -72.5t80 -181.5q0 -211 -236 -356q4 -4 146 -183t165 -204q54 79 85 160.5t59 187.5l133 -35q-47 -243 -178 -430q79 -99 134.5 -166.5t70.5 -85.5 l16 -18h-209q-49 64 -119 150q-183 -173 -413 -173q-112 0 -208 46.5t-155 135t-59 201.5zM295 365q0 -105 69.5 -169.5t182.5 -64.5q167 0 305 135q-47 60 -128 162t-134 168.5t-76 97.5q-130 -81 -174.5 -152.5t-44.5 -176.5zM442 1122q0 -99 127 -252q162 100 162 250 q0 62 -37.5 99.5t-105.5 37.5q-66 0 -106 -35.5t-40 -99.5z" />
<glyph unicode="'" horiz-adv-x="499" d="M174 793v571h152v-571h-152z" />
<glyph unicode="(" horiz-adv-x="694" d="M174 623q0 504 313 938l125 -74q-144 -244 -199 -437.5t-55 -426.5t55 -427t199 -438l-120 -73q-160 218 -239 448t-79 490z" />
<glyph unicode=")" horiz-adv-x="692" d="M82 -242q144 244 199 438t55 427t-55 426.5t-199 437.5l125 74q311 -431 311 -938q0 -510 -315 -938z" />
<glyph unicode="*" horiz-adv-x="974" d="M92 819l299 135l-299 133l74 134l274 -185l-28 328h151l-28 -328l274 185l74 -134l-299 -133l299 -135l-74 -131l-274 184l28 -327h-151l28 327l-274 -184z" />
<glyph unicode="+" horiz-adv-x="1202" d="M113 420v135h417v422h144v-422h416v-135h-416v-420h-144v420h-417z" />
<glyph unicode="," horiz-adv-x="520" d="M143 0v238h213v-238l-106 -260h-90l94 260h-111z" />
<glyph unicode="-" horiz-adv-x="727" d="M102 485v158h523v-158h-523z" />
<glyph unicode="." horiz-adv-x="540" d="M164 0v238h213v-238h-213z" />
<glyph unicode="/" horiz-adv-x="974" d="M113 -240l592 1624h157l-592 -1624h-157z" />
<glyph unicode="0" horiz-adv-x="1249" d="M106 672q0 145 33.5 270t97 219.5t164 148.5t226.5 54t226 -54t162.5 -149t95 -219t32.5 -270t-32.5 -270.5t-95 -220t-162.5 -150t-226 -54.5t-226.5 54.5t-164 149.5t-97 220.5t-33.5 270.5zM287 672q0 -113 19.5 -207.5t59 -169t106 -116.5t155.5 -42t155.5 42 t105.5 116.5t58 168.5t19 208t-19 207.5t-58 167.5t-105.5 115.5t-155.5 41.5t-155.5 -41.5t-106 -115.5t-59 -168t-19.5 -207z" />
<glyph unicode="1" horiz-adv-x="825" d="M45 1266l385 77h180v-1343h-180v1188l-358 -64z" />
<glyph unicode="2" horiz-adv-x="1226" d="M135 0v88q0 57 8.5 104t23 87t44 78t62 70.5t87.5 72t109.5 74t138.5 85.5q166 100 226.5 169t60.5 161q0 110 -83.5 162.5t-260.5 52.5q-162 0 -369 -53l-30 147q204 66 428 66q244 0 369.5 -99t125.5 -268q0 -133 -75.5 -232t-245.5 -204q-88 -55 -136 -85.5 t-103.5 -69t-81.5 -63.5t-51.5 -57t-34.5 -61.5t-11 -64.5h756v-160h-957z" />
<glyph unicode="3" horiz-adv-x="1159" d="M113 45l37 141q174 -53 339 -53q167 0 265 69.5t98 184.5q0 108 -85 175t-247 67h-229v147h223q131 0 205 62.5t74 160.5t-84 154.5t-226 56.5q-145 0 -309 -49l-35 139q170 64 353 64q216 0 347.5 -96.5t131.5 -255.5q0 -87 -50 -167.5t-145 -129.5 q119 -36 189.5 -127.5t70.5 -206.5q0 -170 -149 -287t-395 -117q-196 0 -379 68z" />
<glyph unicode="4" horiz-adv-x="1218" d="M61 342v160l684 841h189v-847h213v-154h-213v-342h-176v342h-697zM248 496h510v632z" />
<glyph unicode="5" horiz-adv-x="1253" d="M152 78l45 141q130 -46 214 -65t187 -19q164 0 253 85t89 212q0 124 -75 193t-214 69q-76 0 -144 -18.5t-147 -65.5l-145 70q25 232 80 663h754v-159h-609l-49 -410q136 76 295 76q203 0 318.5 -115t115.5 -293q0 -91 -34 -174t-97.5 -148.5t-164.5 -104t-226 -38.5 q-213 0 -446 101z" />
<glyph unicode="6" horiz-adv-x="1218" d="M113 567q0 368 184.5 582.5t511.5 214.5q127 0 219 -25l-24 -149q-101 16 -185 16q-242 0 -370 -137t-154 -387q130 156 356 156q194 0 314 -117.5t120 -292.5q0 -119 -56 -221t-163.5 -166t-244.5 -64q-237 0 -372.5 153t-135.5 437zM301 416q0 -121 82.5 -202 t226.5 -81q135 0 214 83t79 202q0 124 -76.5 195t-208.5 71q-134 0 -225.5 -76t-91.5 -192z" />
<glyph unicode="7" horiz-adv-x="1040" d="M82 1184v159h903v-159l-569 -1184h-183l570 1184h-721z" />
<glyph unicode="8" horiz-adv-x="1208" d="M102 387q0 110 64.5 199.5t179.5 138.5q-80 51 -126 126t-46 161q0 157 120 254.5t312 97.5t312 -97.5t120 -254.5q0 -86 -46 -161t-126 -126q114 -49 177 -138.5t63 -199.5q0 -82 -34 -155.5t-96 -130.5t-158 -90.5t-212 -33.5t-212.5 33.5t-159.5 90t-97.5 130.5 t-34.5 156zM283 387q0 -113 89 -184.5t234 -71.5t232.5 71t87.5 185q0 106 -84 176t-236 70t-237.5 -70t-85.5 -176zM346 999q0 -98 70 -161.5t190 -63.5h2q119 0 188.5 63.5t69.5 161.5q0 96 -71 155.5t-189 59.5t-189 -59.5t-71 -155.5z" />
<glyph unicode="9" horiz-adv-x="1218" d="M133 922q0 181 132 311.5t333 130.5q237 0 372.5 -153.5t135.5 -438.5q0 -368 -185 -581.5t-513 -213.5q-105 0 -218 25l23 148q108 -17 184 -17q242 0 370.5 137.5t154.5 386.5q-126 -155 -357 -155q-193 0 -312.5 121.5t-119.5 298.5zM313 922q0 -124 77.5 -195.5 t209.5 -71.5q133 0 224 76.5t91 192.5q0 121 -82.5 202.5t-226.5 81.5q-135 0 -214 -83.5t-79 -202.5z" />
<glyph unicode=":" horiz-adv-x="540" d="M164 0v238h213v-238h-213zM164 739v238h213v-238h-213z" />
<glyph unicode=";" horiz-adv-x="530" d="M154 0v238h213v-238l-105 -260h-92l94 260h-110zM154 739v238h213v-238h-213z" />
<glyph unicode="&#x3c;" horiz-adv-x="1165" d="M61 446v103l981 465v-150l-782 -366l782 -365v-151z" />
<glyph unicode="=" horiz-adv-x="1130" d="M113 188v148h905v-148h-905zM113 598v147h905v-147h-905z" />
<glyph unicode="&#x3e;" horiz-adv-x="1165" d="M123 -23v152l782 369l-782 368v152l981 -469v-103z" />
<glyph unicode="?" horiz-adv-x="1085" d="M113 1323q219 61 422 61q218 0 328 -86t110 -249q0 -141 -94.5 -285t-329.5 -377l-96 96q79 86 123 135.5t92 111.5t70.5 106t37.5 95t15 103q0 97 -64.5 144t-212.5 47q-180 0 -371 -45zM406 0v236h210v-236h-210z" />
<glyph unicode="@" horiz-adv-x="1519" d="M133 682q0 204 79 364.5t220 249t318 88.5q202 0 313 -108t111 -285v-633h-130v93q-74 -103 -196 -103q-93 0 -161 50t-99 124.5t-31 161.5q0 64 18.5 123t53.5 107t92 77t127 29q127 0 201 -94v63q0 128 -71 205.5t-228 77.5q-227 0 -359.5 -164t-132.5 -426 q0 -260 173 -428t450 -168q269 0 536 98l31 -92q-122 -54 -271 -84.5t-296 -30.5q-153 0 -290 51.5t-238 142.5t-160.5 223.5t-59.5 287.5zM682 684q0 -105 47.5 -169t136.5 -64q87 0 137 64t50 169t-50.5 169.5t-136.5 64.5q-89 0 -136.5 -64.5t-47.5 -169.5z" />
<glyph unicode="A" horiz-adv-x="1312" d="M29 0l549 1364h157l549 -1364h-186l-135 346h-611l-137 -346h-186zM403 492h506l-252 667z" />
<glyph unicode="B" horiz-adv-x="1349" d="M197 0v1364h596q208 0 320 -94t112 -256q0 -94 -55 -176t-160 -121q128 -40 193 -129t65 -205q0 -155 -113 -269t-297 -114h-661zM383 154h438q121 0 189.5 62.5t68.5 172.5q0 107 -66.5 172.5t-195.5 65.5h-434v-473zM383 772h379q122 0 198 57t76 164q0 108 -71 162.5 t-197 54.5h-385v-438z" />
<glyph unicode="C" horiz-adv-x="1323" d="M92 682q0 145 57 274.5t155.5 223.5t240 149t303.5 55q196 0 352 -51l-39 -151q-137 39 -301 39q-263 0 -421 -149t-158 -390t158 -391t421 -150q129 0 301 41l37 -151q-178 -54 -350 -54q-162 0 -303.5 55.5t-240 150t-155.5 224.5t-57 275z" />
<glyph unicode="D" horiz-adv-x="1409" d="M197 0v1364h290q179 0 333.5 -51.5t263 -141t170 -216.5t61.5 -273t-61.5 -273t-170 -216.5t-263 -141t-333.5 -51.5h-290zM385 164h133q118 0 225 34t192.5 97t136 163.5t50.5 223.5t-50.5 223.5t-136 163.5t-192.5 97t-225 34h-133v-1036z" />
<glyph unicode="E" horiz-adv-x="1271" d="M197 0v1364h942v-162h-752v-416h705v-161h-705v-463h752v-162h-942z" />
<glyph unicode="F" horiz-adv-x="1243" d="M197 0v1364h964v-162h-774v-416h715v-161h-715v-625h-190z" />
<glyph unicode="G" horiz-adv-x="1425" d="M92 682q0 153 55.5 283.5t154 222.5t239.5 144t307 52q204 0 369 -49l-31 -151q-175 37 -328 37q-268 0 -423.5 -143t-155.5 -396q0 -240 154.5 -390.5t404.5 -150.5q151 0 262 25v473h172v-602q-222 -60 -422 -60q-166 0 -308.5 55.5t-240.5 150.5t-153.5 224.5 t-55.5 274.5z" />
<glyph unicode="H" horiz-adv-x="1482" d="M197 0v1364h188v-582h711v582h190v-1364h-190v616h-711v-616h-188z" />
<glyph unicode="I" horiz-adv-x="598" d="M205 0v1364h188v-1364h-188z" />
<glyph unicode="J" horiz-adv-x="915" d="M102 -2v152h222q117 0 173 70t56 188v798h-410v158h596v-958q0 -186 -105 -297t-306 -111h-226z" />
<glyph unicode="K" horiz-adv-x="1331" d="M197 0v1364h188v-582l635 582h250l-729 -662l770 -702h-252l-674 618v-618h-188z" />
<glyph unicode="L" horiz-adv-x="1132" d="M197 0v1364h188v-1202h696v-162h-884z" />
<glyph unicode="M" horiz-adv-x="1714" d="M197 0v1364h182l479 -913l479 913h181v-1364h-181v1028l-422 -823h-116l-420 823v-1028h-182z" />
<glyph unicode="N" horiz-adv-x="1560" d="M197 0v1364h182l801 -1077v1077h184v-1364h-184l-799 1077v-1077h-184z" />
<glyph unicode="O" d="M102 680q0 143 50 272t136.5 224.5t210.5 151.5t265 56q188 0 340.5 -95.5t236.5 -256.5t84 -352q0 -143 -49.5 -272t-136 -224t-210.5 -151t-265 -56t-265 56t-210.5 151t-136.5 224t-50 272zM289 680q0 -154 58.5 -276.5t167 -192.5t249.5 -70q212 0 342.5 152 t130.5 387t-130.5 388t-342.5 153q-141 0 -249.5 -70.5t-167 -193.5t-58.5 -277z" />
<glyph unicode="P" horiz-adv-x="1323" d="M197 0v1364h653q129 0 229 -59t150.5 -152.5t50.5 -202.5t-50.5 -202t-150.5 -152t-229 -59h-465v-537h-188zM385 690h449q116 0 186 72.5t70 187.5q0 112 -75 185t-181 73h-449v-518z" />
<glyph unicode="Q" d="M102 682q0 143 50 272t136.5 223.5t210.5 150.5t265 56q188 0 340.5 -95t236.5 -255.5t84 -351.5q0 -176 -71 -327t-201.5 -250t-296.5 -121v-369h-184v369q-166 22 -296.5 121t-202 250t-71.5 327zM291 682q0 -235 130.5 -388t342.5 -153q141 0 249.5 70.5t167 193.5 t58.5 277t-58.5 276.5t-167 192.5t-249.5 70q-212 0 -342.5 -152t-130.5 -387z" />
<glyph unicode="R" horiz-adv-x="1468" d="M197 0v1364h661q127 0 225.5 -57.5t149.5 -149t51 -199.5q0 -131 -76 -235t-209 -143l426 -580h-223l-407 555h-410v-555h-188zM385 707h451q117 0 187.5 68.5t70.5 182.5q0 111 -75.5 180.5t-182.5 69.5h-451v-501z" />
<glyph unicode="S" horiz-adv-x="1298" d="M123 88l41 145q280 -96 508 -96q163 0 255.5 57t92.5 150q0 57 -30 96.5t-109.5 82t-237.5 100.5q-140 52 -226 94.5t-144 94t-80.5 109.5t-22.5 138q0 325 518 325q110 0 246.5 -19t232.5 -50l-34 -150q-227 58 -441 58q-184 0 -260 -36t-76 -128q0 -33 7 -58.5t29 -50 t47.5 -43t78.5 -44.5t105.5 -47.5t144.5 -57.5q137 -54 217.5 -95.5t132.5 -89.5t70 -99t18 -126q0 -165 -144.5 -268t-385.5 -103q-280 0 -553 111z" />
<glyph unicode="T" horiz-adv-x="1159" d="M25 1200v164h1110v-164h-461v-1200h-187v1200h-462z" />
<glyph unicode="U" horiz-adv-x="1482" d="M176 508v856h191v-860q0 -168 104 -264.5t270 -96.5q165 0 271 99.5t106 261.5v860h189v-856q0 -105 -39.5 -200.5t-110.5 -169.5t-179 -117.5t-237 -43.5t-237 43.5t-179 117.5t-110 169.5t-39 200.5z" />
<glyph unicode="V" horiz-adv-x="1222" d="M6 1364h189l415 -1124l418 1124h189l-521 -1364h-170z" />
<glyph unicode="W" horiz-adv-x="1757" d="M20 1364h187l276 -1032l320 1032h149l320 -1032l276 1032h189l-375 -1364h-152l-333 1077l-332 -1077h-152z" />
<glyph unicode="X" horiz-adv-x="1335" d="M33 0l526 686l-522 678h217l414 -535l413 535h215l-522 -678l529 -686h-216l-419 545l-420 -545h-215z" />
<glyph unicode="Y" horiz-adv-x="1210" d="M-10 1364h194l422 -647l420 647h195l-521 -815v-549h-188v549z" />
<glyph unicode="Z" horiz-adv-x="1314" d="M113 0v166l874 1036h-848v162h1071v-164l-872 -1038h885v-162h-1110z" />
<glyph unicode="[" horiz-adv-x="638" d="M195 -258v1876h413v-152h-231v-1572h231v-152h-413z" />
<glyph unicode="\" horiz-adv-x="974" d="M113 1384h157l592 -1624h-157z" />
<glyph unicode="]" horiz-adv-x="638" d="M31 -106h231v1572h-231v152h413v-1876h-413v152z" />
<glyph unicode="^" horiz-adv-x="946" d="M61 670l361 694h104l359 -694h-150l-260 524l-262 -524h-152z" />
<glyph unicode="_" horiz-adv-x="911" d="M-2 -23h915v-77h-915v77z" />
<glyph unicode="`" horiz-adv-x="645" d="M123 1384h196l193 -256h-131z" />
<glyph unicode="a" horiz-adv-x="1034" d="M88 279q0 138 84 212t240 74h319v101q0 99 -60 149.5t-206 50.5q-163 0 -305 -26l-19 139q154 37 336 37q210 0 322 -91t112 -257v-668h-176v119q-98 -135 -311 -135q-154 0 -245 78.5t-91 216.5zM268 274q0 -151 189 -151q127 0 200.5 68t73.5 184v57h-276 q-96 0 -141.5 -37.5t-45.5 -120.5z" />
<glyph unicode="b" horiz-adv-x="1189" d="M164 0v1364h182v-530q110 182 316 182q109 0 194.5 -44.5t137 -119t78 -164.5t26.5 -188q0 -96 -27 -186t-78.5 -164.5t-137 -120t-193.5 -45.5q-100 0 -181.5 48t-134.5 134v-166h-182zM346 500q0 -160 75.5 -264.5t209.5 -104.5q91 0 156.5 50.5t96.5 132.5t31 186 q0 160 -74 263t-210 103q-134 0 -209.5 -103t-75.5 -263z" />
<glyph unicode="c" horiz-adv-x="960" d="M82 500q0 222 146.5 369t383.5 147q138 0 256 -39l-30 -137q-104 26 -209 26q-179 0 -273 -99t-94 -267t94 -267.5t273 -99.5q90 0 209 25l30 -138q-107 -36 -256 -36q-237 0 -383.5 147t-146.5 369z" />
<glyph unicode="d" horiz-adv-x="1187" d="M92 500q0 98 26.5 188t78 164.5t137 119t194.5 44.5q206 0 316 -182v530h180v-1364h-180v166q-53 -86 -134.5 -134t-181.5 -48q-108 0 -193.5 45.5t-137 120t-78.5 164.5t-27 186zM272 500q0 -159 75.5 -264t211.5 -105q134 0 209.5 104.5t75.5 264.5t-75.5 263 t-209.5 103q-136 0 -211.5 -103.5t-75.5 -262.5z" />
<glyph unicode="e" horiz-adv-x="1105" d="M88 500q0 139 55.5 255.5t165 188.5t252.5 72q141 0 245 -69t156 -185t52 -264v-56h-746q9 -148 102 -229.5t257 -81.5q142 0 295 41l34 -135q-162 -53 -329 -53q-251 0 -395 142.5t-144 373.5zM268 578h568q-11 136 -81 213t-194 77q-123 0 -201.5 -77t-91.5 -213z" />
<glyph unicode="f" horiz-adv-x="688" d="M72 858v131h145v92q0 89 23.5 155.5t66 104.5t95.5 56t118 18q74 0 168 -24l-20 -136q-69 15 -125 15q-146 0 -146 -180v-101h215v-131h-215v-858h-180v858h-145z" />
<glyph unicode="g" horiz-adv-x="1161" d="M82 512q0 81 16 154t50 137.5t83 111.5t120 74t157 27q102 0 186.5 -46.5t139.5 -135.5v163h180v-903q0 -220 -129.5 -339.5t-372.5 -119.5q-180 0 -336 54l27 129q147 -41 289 -41q182 0 262 74.5t80 230.5v104q-52 -84 -138 -129t-188 -45q-106 0 -189.5 41t-134 112 t-76.5 159t-26 188zM264 512q0 -158 69.5 -255t209.5 -97q138 0 214.5 92t76.5 256q0 166 -77 262t-214 96q-71 0 -125.5 -27t-87.5 -75.5t-49.5 -112t-16.5 -139.5z" />
<glyph unicode="h" horiz-adv-x="1173" d="M164 0v1364h176v-541q53 86 145 139.5t201 53.5q164 0 249 -99t85 -270v-647h-180v627q0 112 -50.5 168.5t-158.5 56.5q-112 0 -199.5 -90.5t-87.5 -233.5v-528h-180z" />
<glyph unicode="i" horiz-adv-x="507" d="M164 0v997h180v-997h-180zM164 1163v219h180v-219h-180z" />
<glyph unicode="j" horiz-adv-x="514" d="M-72 -348l11 141q62 -10 112 -10q72 0 100.5 40.5t28.5 127.5v1046h180v-1054q0 -153 -75.5 -230.5t-208.5 -77.5q-78 0 -148 17zM180 1163v219h180v-219h-180z" />
<glyph unicode="k" horiz-adv-x="1042" d="M164 0v1364h180v-770l428 403h227l-520 -485l547 -512h-225l-457 428v-428h-180z" />
<glyph unicode="l" horiz-adv-x="632" d="M154 285v1079h178v-1069q0 -87 31 -124.5t102 -37.5h90v-143h-117q-132 0 -208 72t-76 223z" />
<glyph unicode="m" horiz-adv-x="1826" d="M164 0v997h178v-174q54 88 140 140.5t194 52.5q230 0 305 -197q54 86 151.5 141.5t208.5 55.5q164 0 248 -99t84 -270v-647h-182v627q0 113 -48.5 169t-156.5 56q-111 0 -193.5 -89.5t-82.5 -232.5v-530h-183v627q0 113 -49 169t-157 56q-111 0 -193 -90t-82 -234v-528 h-182z" />
<glyph unicode="n" horiz-adv-x="1175" d="M164 0v997h178v-174q53 86 144 139.5t200 53.5q165 0 250.5 -99t85.5 -270v-647h-180v627q0 112 -51 168.5t-160 56.5q-112 0 -199.5 -90.5t-87.5 -233.5v-528h-180z" />
<glyph unicode="o" horiz-adv-x="1153" d="M92 500q0 103 34.5 197t96 164.5t153 112.5t199.5 42q143 0 255.5 -71.5t171.5 -188.5t59 -256q0 -103 -34.5 -197t-96.5 -164.5t-154.5 -112.5t-200.5 -42t-199.5 42t-153 112.5t-96 164.5t-34.5 197zM272 500q0 -166 81.5 -267.5t221.5 -101.5t223 101.5t83 267.5 t-83 267t-223 101t-221.5 -101t-81.5 -267z" />
<glyph unicode="p" horiz-adv-x="1189" d="M164 -346v1343h182v-163q53 86 134.5 134t181.5 48q108 0 193.5 -45.5t137 -120t78.5 -164.5t27 -186q0 -98 -26.5 -188t-78 -164.5t-137 -119t-194.5 -44.5q-206 0 -316 182v-512h-182zM346 500q0 -160 75.5 -264.5t209.5 -104.5q91 0 156.5 50.5t96.5 132.5t31 186 q0 160 -74 263t-210 103q-134 0 -209.5 -103t-75.5 -263z" />
<glyph unicode="q" horiz-adv-x="1187" d="M92 500q0 76 16 149t51 140t85 117t122.5 80t159.5 30q100 0 182.5 -48t135.5 -134v163h180v-1343h-180v512q-110 -182 -318 -182q-87 0 -160 29.5t-123 79t-84.5 116t-50.5 140t-16 151.5zM272 500q0 -104 31.5 -186t97 -132.5t156.5 -50.5q134 0 210.5 104.5 t76.5 264.5q0 159 -76.5 262.5t-210.5 103.5q-136 0 -210.5 -103.5t-74.5 -262.5z" />
<glyph unicode="r" horiz-adv-x="714" d="M164 0v997h178v-198q44 87 139 151t203 64v-158q-140 0 -240 -116t-100 -259v-481h-180z" />
<glyph unicode="s" horiz-adv-x="942" d="M82 74l41 133q193 -76 338 -76q223 0 223 129q0 56 -44 85.5t-210 96.5q-184 75 -247.5 140t-63.5 178q0 127 99.5 191.5t275.5 64.5q169 0 327 -49l-26 -140q-172 41 -295 41q-112 0 -159.5 -26t-47.5 -84q0 -56 44 -89.5t185 -90.5q106 -42 166 -72t101.5 -67t56 -77 t14.5 -100q0 -127 -107.5 -202.5t-289.5 -75.5q-90 0 -194.5 25.5t-186.5 64.5z" />
<glyph unicode="t" horiz-adv-x="677" d="M61 862v135h136v283h180v-283h194v-135h-194v-583q0 -86 28.5 -120t86.5 -34q41 0 96 10l18 -133q-64 -18 -139 -18q-270 0 -270 290v588h-136z" />
<glyph unicode="u" horiz-adv-x="1167" d="M143 350v647h183v-624q0 -226 211 -226q112 0 199 89.5t87 232.5v528h181v-997h-179v174q-53 -86 -144 -138t-200 -52q-165 0 -251.5 98t-86.5 268z" />
<glyph unicode="v" horiz-adv-x="950" d="M0 997h178l297 -809l299 809h176l-385 -997h-180z" />
<glyph unicode="w" horiz-adv-x="1413" d="M10 997h170l226 -776l219 776h161l222 -768l225 768h170l-305 -997h-172l-219 766l-222 -766h-170z" />
<glyph unicode="x" horiz-adv-x="1015" d="M41 0l373 506l-363 491h195l262 -364l264 364h193l-363 -491l373 -506h-195l-272 371l-275 -371h-192z" />
<glyph unicode="y" horiz-adv-x="960" d="M0 997h178l299 -802l297 802h176l-516 -1343h-174l135 346z" />
<glyph unicode="z" horiz-adv-x="1060" d="M102 0v145l615 707h-570v145h787v-143l-617 -709h631v-145h-846z" />
<glyph unicode="{" horiz-adv-x="563" d="M61 733h35q52 0 74.5 30.5t22.5 92.5v537q0 100 54.5 162.5t164.5 62.5h151v-135h-98q-90 0 -90 -107v-499q0 -97 -52 -153.5t-157 -59.5q105 -3 157 -61t52 -154v-500q0 -107 90 -107h98v-135h-151q-110 0 -164.5 63.5t-54.5 163.5v537q0 62 -22.5 92.5t-74.5 30.5h-33z " />
<glyph unicode="|" horiz-adv-x="571" d="M215 -410v2048h141v-2048h-141z" />
<glyph unicode="}" horiz-adv-x="561" d="M0 -158h98q90 0 90 107v500q0 97 51 154.5t156 60.5q-105 3 -156 59t-51 154v499q0 107 -90 107h-98v135h152q110 0 164.5 -62.5t54.5 -162.5v-537q0 -62 22 -92.5t74 -30.5h33v-139h-33q-52 0 -74 -30.5t-22 -92.5v-537q0 -100 -54.5 -163.5t-164.5 -63.5h-152v135z" />
<glyph unicode="~" horiz-adv-x="915" d="M51 461q15 48 35.5 88.5t50.5 76t72 56t92 20.5q43 0 92.5 -21.5t85.5 -48t78 -48t72 -21.5q27 0 49.5 13t39 38t26 44.5t20.5 48.5l100 -43q-30 -102 -93 -171t-159 -69q-43 0 -92 21.5t-84.5 48t-77 48t-71.5 21.5q-27 0 -49.5 -13t-39 -37.5t-26 -44t-20.5 -48.5z" />
<glyph unicode="&#xa1;" horiz-adv-x="606" d="M197 1126v238h213v-238h-213zM211 0v381l49 614h88l49 -614v-381h-186z" />
<glyph unicode="&#xa2;" horiz-adv-x="960" d="M82 500q0 140 60.5 254.5t175 184.5t262.5 77v125h47v-125q141 -4 241 -41l-30 -137q-108 25 -197 28h-14v-721q1 0 3 -6t3 -6q73 0 205 29l30 -137q-108 -38 -241 -41v-125h-47v125q-148 7 -262.5 77t-175 184.5t-60.5 254.5zM262 500q0 -155 81.5 -252.5t236.5 -110.5 v725q-155 -13 -236.5 -110t-81.5 -252z" />
<glyph unicode="&#xa3;" horiz-adv-x="1359" d="M154 0v154h120q88 233 82 417q0 1 -1 3.5t-1 3.5h-198v118h178q-32 67 -49 108t-33 103.5t-16 118.5q0 163 131.5 260.5t371.5 97.5q247 0 457 -69l-31 -148q-215 56 -401 56q-178 0 -260 -47t-82 -150q0 -67 22.5 -137.5t75.5 -192.5h428v-118h-405v-11 q3 -91 -17.5 -201.5t-64.5 -211.5h717v-154h-1024z" />
<glyph unicode="&#xa4;" horiz-adv-x="1472" d="M51 492v100h199q-6 43 -6 88q0 42 6 86h-199v98h217q63 230 260 375t469 145q201 0 353 -51l-33 -153q-172 41 -307 41q-207 0 -351.5 -96t-197.5 -261h405v-98h-428q-6 -41 -6 -86q0 -44 6 -88h428v-100h-403q55 -162 199 -256.5t348 -94.5q144 0 307 41l33 -151 q-178 -54 -353 -54q-270 0 -466.5 143.5t-260.5 371.5h-219z" />
<glyph unicode="&#xa5;" horiz-adv-x="1212" d="M-10 1364h196l420 -647l422 647h195l-377 -588h213v-117h-285l-74 -110v-78h359v-117h-359v-354h-188v354h-356v117h356v78l-72 110h-284v117h213z" />
<glyph unicode="&#xa6;" horiz-adv-x="575" d="M217 -410v859h141v-859h-141zM217 780v858h141v-858h-141z" />
<glyph unicode="&#xa7;" horiz-adv-x="1091" d="M92 -262l43 145q216 -88 391 -88q133 0 208 40.5t75 123.5q0 67 -56 102t-274 121q-192 75 -269 156.5t-77 210.5q0 154 178 262q-99 56 -138.5 121.5t-39.5 161.5q0 144 114 217t318 73q202 0 381 -55l-26 -147q-172 43 -347 43q-139 0 -199.5 -33t-60.5 -107 q0 -65 56 -106.5t229 -110.5q233 -93 312 -161.5t79 -194.5q0 -76 -50.5 -154t-133.5 -131q104 -54 144 -112t40 -156q0 -146 -125.5 -233.5t-333.5 -87.5q-107 0 -224.5 27t-213.5 73zM315 547q0 -67 52 -111.5t204 -105.5q14 -5 38 -15t28 -12q70 26 121 85t51 122 q0 64 -52.5 100t-236.5 109q-51 19 -53 20q-69 -30 -110.5 -79t-41.5 -113z" />
<glyph unicode="&#xa8;" horiz-adv-x="790" d="M133 1149v190h168v-190h-168zM489 1149v190h168v-190h-168z" />
<glyph unicode="&#xa9;" horiz-adv-x="1536" d="M72 682q0 143 54 272.5t146.5 224t222 150t273.5 55.5t273.5 -55.5t222 -150t146.5 -224t54 -272.5t-54 -273t-146.5 -225t-222 -151t-273.5 -56t-273.5 56t-222 151t-146.5 225t-54 273zM154 682q0 -123 46 -237.5t126 -200.5t195.5 -137.5t246.5 -51.5t246.5 51.5 t195.5 137.5t126 200.5t46 237.5t-46 237.5t-126 200t-195.5 136.5t-246.5 51t-246.5 -51t-195.5 -136.5t-126 -200t-46 -237.5zM438 684q0 149 107.5 251.5t271.5 102.5q90 0 176 -26l-12 -78q-95 20 -158 20q-133 0 -212 -74.5t-79 -195.5t79.5 -196.5t211.5 -75.5 q77 0 158 20l12 -76q-86 -26 -176 -26q-164 0 -271.5 102.5t-107.5 251.5z" />
<glyph unicode="&#xaa;" horiz-adv-x="768" d="M102 901q0 90 56 138t159 48h209v68q0 65 -39.5 98t-134.5 33q-96 0 -200 -16l-13 90q113 24 219 24q139 0 213 -60t74 -169v-438h-115v78q-66 -88 -204 -88q-101 0 -162.5 52t-61.5 142zM223 899q0 -100 123 -100q83 0 131.5 44.5t48.5 119.5v38h-180q-64 0 -93.5 -24 t-29.5 -78z" />
<glyph unicode="&#xab;" horiz-adv-x="1196" d="M61 500l467 497l86 -79l-393 -418l393 -420l-86 -80zM469 500l467 497l86 -79l-395 -418l395 -420l-84 -80z" />
<glyph unicode="&#xac;" horiz-adv-x="1042" d="M72 428v127h776v-555h-141v428h-635z" />
<glyph unicode="&#xad;" horiz-adv-x="727" d="M102 485v158h523v-158h-523z" />
<glyph unicode="&#xae;" horiz-adv-x="1536" d="M72 682q0 143 54 272.5t146.5 224t222 150t273.5 55.5t273.5 -55.5t222 -150t146.5 -224t54 -272.5t-54 -273t-146.5 -225t-222 -151t-273.5 -56t-273.5 56t-222 151t-146.5 225t-54 273zM154 682q0 -123 46 -237.5t126 -200.5t195.5 -137.5t246.5 -51.5t246.5 51.5 t195.5 137.5t126 200.5t46 237.5t-46 237.5t-126 200t-195.5 136.5t-246.5 51t-246.5 -51t-195.5 -136.5t-126 -200t-46 -237.5zM504 342v688h334q96 0 155.5 -61t59.5 -146q0 -66 -38 -117t-106 -71l213 -293h-110l-207 281h-205v-281h-96zM600 698h227q59 0 94 34t35 91 q0 56 -37.5 91.5t-91.5 35.5h-227v-252z" />
<glyph unicode="&#xaf;" horiz-adv-x="708" d="M102 1251v92h504v-92h-504z" />
<glyph unicode="&#xb0;" horiz-adv-x="647" d="M102 1163q0 92 65 156.5t157 64.5t156.5 -64.5t64.5 -156.5t-64.5 -157.5t-156.5 -65.5t-157 65.5t-65 157.5zM154 1163q0 -69 48.5 -121.5t121.5 -52.5t122.5 53t49.5 121t-49.5 121t-122.5 53t-121.5 -52.5t-48.5 -121.5z" />
<glyph unicode="&#xb1;" horiz-adv-x="1202" d="M113 0v125h417v295h-417v135h417v422h142v-422h418v-135h-418v-295h418v-125h-977z" />
<glyph unicode="&#xb2;" horiz-adv-x="1363" d="M0 342v340h340v-340h-340zM0 1024v340h340v-340h-340zM340 0v342h342v-342h-342zM340 682v342h342v-342h340v-340h342v-342h-342v342h-340v340h-342zM682 1024v340h340v-340h-340zM1022 682v342h342v-342h-342z" />
<glyph unicode="&#xb3;" horiz-adv-x="1363" d="M0 342v340h340v-340h-340zM0 1024v340h340v-340h-340zM340 0v342h342v-342h-342zM340 682v342h342v-342h340v-340h342v-342h-342v342h-340v340h-342zM682 1024v340h340v-340h-340zM1022 682v342h342v-342h-342z" />
<glyph unicode="&#xb4;" horiz-adv-x="647" d="M133 1128l195 256h196l-258 -256h-133z" />
<glyph unicode="&#xb5;" horiz-adv-x="1167" d="M143 -346v1343h183v-626q0 -112 51 -168t160 -56q112 0 199 89.5t87 232.5v528h181v-997h-179v174q-53 -86 -144 -138t-200 -52q-97 0 -155 43v-373h-183z" />
<glyph unicode="&#xb6;" horiz-adv-x="876" d="M41 1085q0 115 81 197t195 82h365v-1364h-107v1286h-149v-1286h-109v807q-114 0 -195 81.5t-81 196.5z" />
<glyph unicode="&#xb7;" horiz-adv-x="540" d="M164 545v237h213v-237h-213z" />
<glyph unicode="&#xb8;" horiz-adv-x="653" d="M102 -510l21 76q73 -21 151 -21q71 0 112.5 31.5t41.5 87.5q0 55 -39.5 83t-105.5 28q-59 0 -127 -8l53 233h98q-14 -49 -39 -147q31 4 68 4q100 0 157.5 -51.5t57.5 -141.5q0 -91 -72 -149t-190 -58q-102 0 -187 33z" />
<glyph unicode="&#xb9;" horiz-adv-x="1363" d="M0 342v340h340v-340h-340zM0 1024v340h340v-340h-340zM340 0v342h342v-342h-342zM340 682v342h342v-342h340v-340h342v-342h-342v342h-340v340h-342zM682 1024v340h340v-340h-340zM1022 682v342h342v-342h-342z" />
<glyph unicode="&#xba;" horiz-adv-x="800" d="M82 1044q0 140 88.5 240t230.5 100t230 -100t88 -240t-88 -238.5t-230 -98.5t-230.5 98.5t-88.5 238.5zM203 1044q0 -108 53.5 -173.5t144.5 -65.5q92 0 146.5 65.5t54.5 173.5t-55 175t-146 67t-144.5 -66.5t-53.5 -175.5z" />
<glyph unicode="&#xbb;" horiz-adv-x="1196" d="M174 80l395 420l-395 418l88 79l467 -497l-469 -500zM582 80l395 420l-395 418l86 79l467 -497l-467 -500z" />
<glyph unicode="&#xbc;" horiz-adv-x="1363" d="M0 342v340h340v-340h-340zM0 1024v340h340v-340h-340zM340 0v342h342v-342h-342zM340 682v342h342v-342h340v-340h342v-342h-342v342h-340v340h-342zM682 1024v340h340v-340h-340zM1022 682v342h342v-342h-342z" />
<glyph unicode="&#xbd;" horiz-adv-x="1363" d="M0 342v340h340v-340h-340zM0 1024v340h340v-340h-340zM340 0v342h342v-342h-342zM340 682v342h342v-342h340v-340h342v-342h-342v342h-340v340h-342zM682 1024v340h340v-340h-340zM1022 682v342h342v-342h-342z" />
<glyph unicode="&#xbe;" horiz-adv-x="1363" d="M0 342v340h340v-340h-340zM0 1024v340h340v-340h-340zM340 0v342h342v-342h-342zM340 682v342h342v-342h340v-340h342v-342h-342v342h-340v340h-342zM682 1024v340h340v-340h-340zM1022 682v342h342v-342h-342z" />
<glyph unicode="&#xbf;" horiz-adv-x="1087" d="M113 315q0 140 94 283t330 377l90 -103q-28 -34 -79 -93t-70.5 -83t-55 -68t-48.5 -65t-33.5 -56t-27 -59.5t-12.5 -55.5t-6 -64q0 -97 65 -144t213 -47q172 0 371 47l31 -145q-212 -59 -422 -59q-218 0 -329 86t-111 249zM471 1128v236h211v-236h-211z" />
<glyph unicode="&#xc0;" horiz-adv-x="1312" d="M29 0l549 1364h157l549 -1364h-186l-135 346h-611l-137 -346h-186zM326 1735h194l195 -256h-133zM403 492h506l-252 667z" />
<glyph unicode="&#xc1;" horiz-adv-x="1312" d="M29 0l549 1364h157l549 -1364h-186l-135 346h-611l-137 -346h-186zM403 492h506l-252 667zM604 1479l193 256h196l-256 -256h-133z" />
<glyph unicode="&#xc2;" horiz-adv-x="1312" d="M29 0l549 1364h157l549 -1364h-186l-135 346h-611l-137 -346h-186zM365 1473l215 258h149l219 -258h-145l-146 163l-145 -163h-147zM403 492h506l-252 667z" />
<glyph unicode="&#xc3;" horiz-adv-x="1312" d="M29 0l549 1364h157l549 -1364h-186l-135 346h-611l-137 -346h-186zM375 1501q22 74 68.5 125.5t115.5 48.5q41 -2 84 -24.5t80.5 -44.5t64.5 -23q23 -1 42 17.5t28 36.5t19 44l84 -32q-24 -74 -71 -125.5t-114 -48.5q-42 1 -85.5 24t-80 46t-61.5 24q-15 1 -27.5 -6 t-21 -16t-17 -25t-12.5 -26t-10 -26zM403 492h506l-252 667z" />
<glyph unicode="&#xc4;" horiz-adv-x="1312" d="M29 0l549 1364h157l549 -1364h-186l-135 346h-611l-137 -346h-186zM393 1483v190h168v-190h-168zM403 492h506l-252 667zM750 1483v190h170v-190h-170z" />
<glyph unicode="&#xc5;" horiz-adv-x="1312" d="M29 0l549 1364h157l549 -1364h-186l-135 346h-611l-137 -346h-186zM403 492h506l-252 667zM481 1608q0 72 51 123t123 51q73 0 124.5 -51t51.5 -123t-51 -123t-123 -51q-73 0 -124.5 51t-51.5 123zM551 1608q0 -44 29.5 -76.5t74.5 -32.5t76 32.5t31 76.5h2q0 44 -31 76 t-76 32q-46 0 -76 -32t-30 -76z" />
<glyph unicode="&#xc6;" horiz-adv-x="1775" d="M29 0l551 1364h1062v-162h-833l121 -416h655v-161h-612l131 -463h538v-162h-677l-93 344h-520l-135 -344h-188zM406 492h430l-177 667z" />
<glyph unicode="&#xc7;" horiz-adv-x="1323" d="M92 682q0 145 57 274.5t155.5 223.5t240 149t303.5 55q196 0 352 -51l-39 -151q-137 39 -301 39q-263 0 -421 -149t-158 -390t158 -391t421 -150q129 0 301 41l37 -151q-178 -54 -350 -54q-162 0 -303.5 55.5t-240 150t-155.5 224.5t-57 275zM590 -510l20 76 q74 -21 152 -21q71 0 112 31.5t41 87.5q0 55 -39.5 83t-105.5 28q-59 0 -127 -8l53 233h99q-14 -49 -39 -147q31 4 67 4q100 0 157.5 -51.5t57.5 -141.5q0 -91 -72 -149t-190 -58q-101 0 -186 33z" />
<glyph unicode="&#xc8;" horiz-adv-x="1271" d="M197 0v1364h942v-162h-752v-416h705v-161h-705v-463h752v-162h-942zM354 1735h197l194 -256h-133z" />
<glyph unicode="&#xc9;" horiz-adv-x="1271" d="M197 0v1364h942v-162h-752v-416h705v-161h-705v-463h752v-162h-942zM578 1479l194 256h195l-256 -256h-133z" />
<glyph unicode="&#xca;" horiz-adv-x="1271" d="M197 0v1364h942v-162h-752v-416h705v-161h-705v-463h752v-162h-942zM373 1473l215 258h149l217 -258h-145l-145 163l-146 -163h-145z" />
<glyph unicode="&#xcb;" horiz-adv-x="1271" d="M197 0v1364h942v-162h-752v-416h705v-161h-705v-463h752v-162h-942zM414 1483v190h168v-190h-168zM770 1483v190h168v-190h-168z" />
<glyph unicode="&#xcc;" horiz-adv-x="602" d="M-20 1735h196l193 -256h-133zM205 0v1364h188v-1364h-188z" />
<glyph unicode="&#xcd;" horiz-adv-x="602" d="M205 0v1364h188v-1364h-188zM231 1479l195 256h197l-258 -256h-134z" />
<glyph unicode="&#xce;" horiz-adv-x="602" d="M10 1473l215 258h152l215 -258h-146l-145 163l-145 -163h-146zM205 0v1364h188v-1364h-188z" />
<glyph unicode="&#xcf;" horiz-adv-x="602" d="M41 1483v190h168v-190h-168zM205 0v1364h188v-1364h-188zM397 1483v190h168v-190h-168z" />
<glyph unicode="&#xd0;" horiz-adv-x="1460" d="M92 616v132h158v616h289q239 0 428 -87.5t294 -243.5t105 -351t-105 -351t-294 -243.5t-428 -87.5h-289v616h-158zM436 164h133q118 0 225.5 34t192.5 97t136 163.5t51 223.5t-51 223.5t-136 163.5t-192.5 97t-225.5 34h-133v-452h291v-132h-291v-452z" />
<glyph unicode="&#xd1;" horiz-adv-x="1560" d="M197 0v1364h182l801 -1077v1077h184v-1364h-184l-799 1077v-1077h-184zM504 1501q22 74 68.5 125.5t115.5 48.5q41 -2 84.5 -24.5t81 -44.5t64.5 -23q14 -1 26.5 6t21.5 16.5t17.5 25t12.5 25.5l10 25l84 -32q-24 -74 -71 -125.5t-114 -48.5q-42 1 -85.5 24t-80 46 t-61.5 24q-15 1 -27.5 -6t-21 -16t-17 -25t-12.5 -26t-10 -26z" />
<glyph unicode="&#xd2;" d="M102 680q0 143 50 272t136.5 224.5t210.5 151.5t265 56q188 0 340.5 -95.5t236.5 -256.5t84 -352q0 -143 -49.5 -272t-136 -224t-210.5 -151t-265 -56t-265 56t-210.5 151t-136.5 224t-50 272zM289 680q0 -154 58.5 -276.5t167 -192.5t249.5 -70q212 0 342.5 152 t130.5 387t-130.5 388t-342.5 153q-141 0 -249.5 -70.5t-167 -193.5t-58.5 -277zM428 1735h197l192 -256h-131z" />
<glyph unicode="&#xd3;" d="M102 680q0 143 50 272t136.5 224.5t210.5 151.5t265 56q188 0 340.5 -95.5t236.5 -256.5t84 -352q0 -143 -49.5 -272t-136 -224t-210.5 -151t-265 -56t-265 56t-210.5 151t-136.5 224t-50 272zM289 680q0 -154 58.5 -276.5t167 -192.5t249.5 -70q212 0 342.5 152 t130.5 387t-130.5 388t-342.5 153q-141 0 -249.5 -70.5t-167 -193.5t-58.5 -277zM700 1479l195 256h195l-256 -256h-134z" />
<glyph unicode="&#xd4;" d="M102 680q0 143 50 272t136.5 224.5t210.5 151.5t265 56q188 0 340.5 -95.5t236.5 -256.5t84 -352q0 -143 -49.5 -272t-136 -224t-210.5 -151t-265 -56t-265 56t-210.5 151t-136.5 224t-50 272zM289 680q0 -154 58.5 -276.5t167 -192.5t249.5 -70q212 0 342.5 152 t130.5 387t-130.5 388t-342.5 153q-141 0 -249.5 -70.5t-167 -193.5t-58.5 -277zM473 1473l215 258h150l217 -258h-146l-145 163l-148 -163h-143z" />
<glyph unicode="&#xd5;" d="M102 680q0 143 50 272t136.5 224.5t210.5 151.5t265 56q188 0 340.5 -95.5t236.5 -256.5t84 -352q0 -143 -49.5 -272t-136 -224t-210.5 -151t-265 -56t-265 56t-210.5 151t-136.5 224t-50 272zM289 680q0 -154 58.5 -276.5t167 -192.5t249.5 -70q212 0 342.5 152 t130.5 387t-130.5 388t-342.5 153q-141 0 -249.5 -70.5t-167 -193.5t-58.5 -277zM471 1501q24 75 70 126t114 48q42 -2 86 -24.5t81.5 -44.5t62.5 -23q14 -1 26.5 6t21.5 16.5t17.5 25t12.5 25.5l10 25l84 -32q-24 -75 -70.5 -126t-114.5 -48q-42 1 -85.5 24t-80 46 t-61.5 24q-23 1 -42 -17.5t-27.5 -36.5t-18.5 -45z" />
<glyph unicode="&#xd6;" d="M102 680q0 143 50 272t136.5 224.5t210.5 151.5t265 56q188 0 340.5 -95.5t236.5 -256.5t84 -352q0 -143 -49.5 -272t-136 -224t-210.5 -151t-265 -56t-265 56t-210.5 151t-136.5 224t-50 272zM289 680q0 -154 58.5 -276.5t167 -192.5t249.5 -70q212 0 342.5 152 t130.5 387t-130.5 388t-342.5 153q-141 0 -249.5 -70.5t-167 -193.5t-58.5 -277zM502 1483v190h168v-190h-168zM858 1483v190h168v-190h-168z" />
<glyph unicode="&#xd7;" horiz-adv-x="989" d="M98 170l295 295l-295 295l103 100l295 -295l295 295l100 -100l-295 -295l295 -295l-100 -100l-295 295l-295 -295z" />
<glyph unicode="&#xd8;" d="M102 39l162 172q-162 199 -162 471q0 143 50 272t136.5 223.5t210.5 150.5t265 56q254 0 438 -170l160 168l63 -59l-161 -174q161 -197 161 -467q0 -191 -84 -352t-236.5 -257t-340.5 -96q-254 0 -438 170l-160 -170zM289 682q0 -196 98 -344l698 752q-131 131 -321 131 q-141 0 -249.5 -70t-167 -192.5t-58.5 -276.5zM442 272q131 -131 322 -131q212 0 342.5 153t130.5 388q0 195 -96 340z" />
<glyph unicode="&#xd9;" horiz-adv-x="1482" d="M176 508v856h191v-860q0 -168 104 -264.5t270 -96.5q165 0 271 99.5t106 261.5v860h189v-856q0 -105 -39.5 -200.5t-110.5 -169.5t-179 -117.5t-237 -43.5t-237 43.5t-179 117.5t-110 169.5t-39 200.5zM422 1735h196l195 -256h-133z" />
<glyph unicode="&#xda;" horiz-adv-x="1482" d="M176 508v856h191v-860q0 -168 104 -264.5t270 -96.5q165 0 271 99.5t106 261.5v860h189v-856q0 -105 -39.5 -200.5t-110.5 -169.5t-179 -117.5t-237 -43.5t-237 43.5t-179 117.5t-110 169.5t-39 200.5zM664 1479l194 256h195l-256 -256h-133z" />
<glyph unicode="&#xdb;" horiz-adv-x="1482" d="M176 508v856h191v-860q0 -168 104 -264.5t270 -96.5q165 0 271 99.5t106 261.5v860h189v-856q0 -105 -39.5 -200.5t-110.5 -169.5t-179 -117.5t-237 -43.5t-237 43.5t-179 117.5t-110 169.5t-39 200.5zM451 1473l215 258h149l217 -258h-145l-146 163l-145 -163h-145z" />
<glyph unicode="&#xdc;" horiz-adv-x="1482" d="M176 508v856h191v-860q0 -168 104 -264.5t270 -96.5q165 0 271 99.5t106 261.5v860h189v-856q0 -105 -39.5 -200.5t-110.5 -169.5t-179 -117.5t-237 -43.5t-237 43.5t-179 117.5t-110 169.5t-39 200.5zM479 1483v190h168v-190h-168zM836 1483v190h168v-190h-168z" />
<glyph unicode="&#xdd;" horiz-adv-x="1210" d="M-10 1364h194l422 -647l420 647h195l-521 -815v-549h-188v549zM571 1479l195 256h197l-258 -256h-134z" />
<glyph unicode="&#xde;" horiz-adv-x="1323" d="M197 0v1364h190v-260h463q194 0 313 -119t119 -287q0 -167 -118.5 -284t-313.5 -117h-463v-297h-190zM387 451h447q118 0 188 66.5t70 180.5q0 111 -75 179.5t-183 68.5h-447v-495z" />
<glyph unicode="&#xdf;" horiz-adv-x="1267" d="M86 858v131h145v60q0 170 103 268t278 98t281 -92.5t106 -228.5q0 -62 -22 -114.5t-53.5 -87t-63.5 -63.5t-54 -59t-22 -59q0 -42 25.5 -67.5t116.5 -68.5q141 -67 200.5 -135.5t59.5 -179.5q0 -125 -98.5 -201.5t-266.5 -76.5q-154 0 -286 63l38 131q125 -51 246 -51 q92 0 140.5 36t48.5 97q0 59 -37.5 97.5t-145.5 90.5q-125 59 -173 118t-48 149q0 34 12 64t31 54t42 46.5t45.5 45.5t41.5 47.5t31 55.5t12 66q0 81 -57 129.5t-150 48.5q-90 0 -145 -53t-55 -148v-1069h-181v858h-145z" />
<glyph unicode="&#xe0;" horiz-adv-x="1034" d="M88 279q0 138 84 212t240 74h319v101q0 99 -60 149.5t-206 50.5q-163 0 -305 -26l-19 139q154 37 336 37q210 0 322 -91t112 -257v-668h-176v119q-98 -135 -311 -135q-154 0 -245 78.5t-91 216.5zM184 1384h197l192 -256h-131zM268 274q0 -151 189 -151q127 0 200.5 68 t73.5 184v57h-276q-96 0 -141.5 -37.5t-45.5 -120.5z" />
<glyph unicode="&#xe1;" horiz-adv-x="1034" d="M88 279q0 138 84 212t240 74h319v101q0 99 -60 149.5t-206 50.5q-163 0 -305 -26l-19 139q154 37 336 37q210 0 322 -91t112 -257v-668h-176v119q-98 -135 -311 -135q-154 0 -245 78.5t-91 216.5zM268 274q0 -151 189 -151q127 0 200.5 68t73.5 184v57h-276 q-96 0 -141.5 -37.5t-45.5 -120.5zM436 1128l195 256h196l-258 -256h-133z" />
<glyph unicode="&#xe2;" horiz-adv-x="1034" d="M88 279q0 138 84 212t240 74h319v101q0 99 -60 149.5t-206 50.5q-163 0 -305 -26l-19 139q154 37 336 37q210 0 322 -91t112 -257v-668h-176v119q-98 -135 -311 -135q-154 0 -245 78.5t-91 216.5zM209 1126l213 258h151l215 -258h-145l-145 164l-146 -164h-143zM268 274 q0 -151 189 -151q127 0 200.5 68t73.5 184v57h-276q-96 0 -141.5 -37.5t-45.5 -120.5z" />
<glyph unicode="&#xe3;" horiz-adv-x="1034" d="M88 279q0 138 84 212t240 74h319v101q0 99 -60 149.5t-206 50.5q-163 0 -305 -26l-19 139q154 37 336 37q210 0 322 -91t112 -257v-668h-176v119q-98 -135 -311 -135q-154 0 -245 78.5t-91 216.5zM236 1174q24 75 70 126t114 48q33 -1 68 -16t59.5 -31.5t52.5 -30.5 t49 -15q17 -1 32 8.5t26 27.5t17 30.5t13 32.5l84 -33q-24 -75 -70 -126t-114 -48q-42 2 -85.5 25t-80 45.5t-61.5 23.5q-23 1 -42 -17t-28 -36.5t-18 -44.5zM268 274q0 -151 189 -151q127 0 200.5 68t73.5 184v57h-276q-96 0 -141.5 -37.5t-45.5 -120.5z" />
<glyph unicode="&#xe4;" horiz-adv-x="1034" d="M88 279q0 138 84 212t240 74h319v101q0 99 -60 149.5t-206 50.5q-163 0 -305 -26l-19 139q154 37 336 37q210 0 322 -91t112 -257v-668h-176v119q-98 -135 -311 -135q-154 0 -245 78.5t-91 216.5zM252 1149v190h168v-190h-168zM268 274q0 -151 189 -151q127 0 200.5 68 t73.5 184v57h-276q-96 0 -141.5 -37.5t-45.5 -120.5zM608 1149v190h168v-190h-168z" />
<glyph unicode="&#xe5;" horiz-adv-x="1034" d="M88 279q0 138 84 212t240 74h319v101q0 99 -60 149.5t-206 50.5q-163 0 -305 -26l-19 139q154 37 336 37q210 0 322 -91t112 -257v-668h-176v119q-98 -135 -311 -135q-154 0 -245 78.5t-91 216.5zM268 274q0 -151 189 -151q127 0 200.5 68t73.5 184v57h-276 q-96 0 -141.5 -37.5t-45.5 -120.5zM326 1274q0 72 50 123t122 51t123 -51t51 -123t-51 -124t-123 -52t-122 52t-50 124zM395 1274q0 -44 29 -76.5t74 -32.5t75.5 32.5t30.5 76.5q0 43 -30.5 74.5t-75.5 31.5t-74 -31t-29 -75z" />
<glyph unicode="&#xe6;" horiz-adv-x="1746" d="M88 285q0 138 84 211t240 73h317v97q0 100 -59.5 150t-204.5 50q-136 0 -305 -26l-19 139q161 37 336 37q138 0 234 -43t143 -121q134 164 348 164q141 0 245 -69t156 -185t52 -264v-56h-746q9 -148 102 -229.5t257 -81.5q130 0 295 43l34 -137q-162 -53 -329 -53 q-145 0 -255 50.5t-179 143.5q-55 -92 -151.5 -143t-221.5 -51q-169 0 -271 81.5t-102 219.5zM270 279q0 -156 187 -156q132 0 202 68t70 186v59h-274q-96 0 -140.5 -37t-44.5 -120zM909 571h568q-11 137 -81.5 217t-193.5 80t-201 -80t-92 -217z" />
<glyph unicode="&#xe7;" horiz-adv-x="960" d="M82 500q0 222 146.5 369t383.5 147q138 0 256 -39l-30 -137q-104 26 -209 26q-179 0 -273 -99t-94 -267t94 -267.5t273 -99.5q90 0 209 25l30 -138q-107 -36 -256 -36q-237 0 -383.5 147t-146.5 369zM401 -510l21 76q73 -21 151 -21q71 0 112.5 31.5t41.5 87.5 q0 55 -39.5 83t-105.5 28q-59 0 -127 -8l53 233h98q-14 -49 -39 -147q31 4 68 4q100 0 157.5 -51.5t57.5 -141.5q0 -91 -72 -149t-190 -58q-102 0 -187 33z" />
<glyph unicode="&#xe8;" horiz-adv-x="1105" d="M88 500q0 139 55.5 255.5t165 188.5t252.5 72q141 0 245 -69t156 -185t52 -264v-56h-746q9 -148 102 -229.5t257 -81.5q142 0 295 41l34 -135q-162 -53 -329 -53q-251 0 -395 142.5t-144 373.5zM215 1384h197l192 -256h-131zM268 578h568q-11 136 -81 213t-194 77 q-123 0 -201.5 -77t-91.5 -213z" />
<glyph unicode="&#xe9;" horiz-adv-x="1105" d="M88 500q0 139 55.5 255.5t165 188.5t252.5 72q141 0 245 -69t156 -185t52 -264v-56h-746q9 -148 102 -229.5t257 -81.5q142 0 295 41l34 -135q-162 -53 -329 -53q-251 0 -395 142.5t-144 373.5zM268 578h568q-11 136 -81 213t-194 77q-123 0 -201.5 -77t-91.5 -213z M498 1128l194 256h197l-258 -256h-133z" />
<glyph unicode="&#xea;" horiz-adv-x="1105" d="M88 500q0 139 55.5 255.5t165 188.5t252.5 72q141 0 245 -69t156 -185t52 -264v-56h-746q9 -148 102 -229.5t257 -81.5q142 0 295 41l34 -135q-162 -53 -329 -53q-251 0 -395 142.5t-144 373.5zM268 578h568q-11 136 -81 213t-194 77q-123 0 -201.5 -77t-91.5 -213z M281 1126l213 258h151l215 -258h-145l-146 164l-145 -164h-143z" />
<glyph unicode="&#xeb;" horiz-adv-x="1105" d="M88 500q0 139 55.5 255.5t165 188.5t252.5 72q141 0 245 -69t156 -185t52 -264v-56h-746q9 -148 102 -229.5t257 -81.5q142 0 295 41l34 -135q-162 -53 -329 -53q-251 0 -395 142.5t-144 373.5zM268 578h568q-11 136 -81 213t-194 77q-123 0 -201.5 -77t-91.5 -213z M297 1149v190h168v-190h-168zM653 1149v190h168v-190h-168z" />
<glyph unicode="&#xec;" horiz-adv-x="505" d="M-66 1384h197l193 -256h-131zM166 0v997h180v-997h-180z" />
<glyph unicode="&#xed;" horiz-adv-x="505" d="M164 0v997h180v-997h-180zM176 1128l195 256h196l-258 -256h-133z" />
<glyph unicode="&#xee;" horiz-adv-x="505" d="M-35 1126l213 258h152l215 -258h-146l-145 164l-145 -164h-144zM166 0v997h180v-997h-180z" />
<glyph unicode="&#xef;" horiz-adv-x="505" d="M-8 1149v190h168v-190h-168zM164 0v997h180v-997h-180zM348 1149v190h168v-190h-168z" />
<glyph unicode="&#xf0;" horiz-adv-x="1105" d="M92 500q0 78 16 151.5t50.5 140t84.5 116t123 79t160 29.5q101 0 180.5 -48.5t127.5 -136.5q-18 156 -119 297l-97 -75l-36 47l98 76q-76 95 -193 188h181q64 -46 116 -104l93 71l36 -45l-92 -72q96 -122 149.5 -280t53.5 -338q0 -127 -28.5 -236t-85.5 -194t-150 -133.5 t-213 -48.5q-113 0 -202.5 45.5t-143 120t-81.5 164.5t-28 186zM270 500q0 -159 75.5 -264t211.5 -105q134 0 210.5 104.5t76.5 264.5q0 159 -76.5 262.5t-210.5 103.5q-136 0 -211.5 -103.5t-75.5 -262.5z" />
<glyph unicode="&#xf1;" horiz-adv-x="1175" d="M164 0v997h178v-174q53 86 144 139.5t200 53.5q165 0 250.5 -99t85.5 -270v-647h-180v627q0 112 -51 168.5t-160 56.5q-112 0 -199.5 -90.5t-87.5 -233.5v-528h-180zM330 1174q24 75 70 126t114 48q33 -1 68 -16t59.5 -31.5t52.5 -30.5t49 -15q17 -1 32 8.5t26 27.5 t17 30.5t13 32.5l84 -33q-24 -75 -70 -126t-114 -48q-42 2 -85.5 25t-80 45.5t-61.5 23.5q-23 1 -42 -17t-28 -36.5t-18 -44.5z" />
<glyph unicode="&#xf2;" horiz-adv-x="1153" d="M92 500q0 103 34.5 197t96 164.5t153 112.5t199.5 42q143 0 255.5 -71.5t171.5 -188.5t59 -256q0 -103 -34.5 -197t-96.5 -164.5t-154.5 -112.5t-200.5 -42t-199.5 42t-153 112.5t-96 164.5t-34.5 197zM236 1384h196l193 -256h-131zM272 500q0 -166 81.5 -267.5 t221.5 -101.5t223 101.5t83 267.5t-83 267t-223 101t-221.5 -101t-81.5 -267z" />
<glyph unicode="&#xf3;" horiz-adv-x="1153" d="M92 500q0 103 34.5 197t96 164.5t153 112.5t199.5 42q143 0 255.5 -71.5t171.5 -188.5t59 -256q0 -103 -34.5 -197t-96.5 -164.5t-154.5 -112.5t-200.5 -42t-199.5 42t-153 112.5t-96 164.5t-34.5 197zM272 500q0 -166 81.5 -267.5t221.5 -101.5t223 101.5t83 267.5 t-83 267t-223 101t-221.5 -101t-81.5 -267zM496 1128l194 256h197l-258 -256h-133z" />
<glyph unicode="&#xf4;" horiz-adv-x="1153" d="M92 500q0 103 34.5 197t96 164.5t153 112.5t199.5 42q143 0 255.5 -71.5t171.5 -188.5t59 -256q0 -103 -34.5 -197t-96.5 -164.5t-154.5 -112.5t-200.5 -42t-199.5 42t-153 112.5t-96 164.5t-34.5 197zM272 500q0 -166 81.5 -267.5t221.5 -101.5t223 101.5t83 267.5 t-83 267t-223 101t-221.5 -101t-81.5 -267zM283 1126l213 258h151l215 -258h-145l-146 164l-145 -164h-143z" />
<glyph unicode="&#xf5;" horiz-adv-x="1153" d="M92 500q0 103 34.5 197t96 164.5t153 112.5t199.5 42q143 0 255.5 -71.5t171.5 -188.5t59 -256q0 -103 -34.5 -197t-96.5 -164.5t-154.5 -112.5t-200.5 -42t-199.5 42t-153 112.5t-96 164.5t-34.5 197zM272 500q0 -166 81.5 -267.5t221.5 -101.5t223 101.5t83 267.5 t-83 267t-223 101t-221.5 -101t-81.5 -267zM293 1174q24 75 70 126t114 48q42 -2 86 -24.5t81.5 -45t62.5 -23.5q17 -1 32 8.5t26 27.5t17 30.5t13 32.5l84 -33q-24 -75 -70.5 -126t-114.5 -48q-42 2 -85.5 25t-80 45.5t-61.5 23.5q-23 1 -42 -17t-28 -36.5t-18 -44.5z" />
<glyph unicode="&#xf6;" horiz-adv-x="1153" d="M92 500q0 103 34.5 197t96 164.5t153 112.5t199.5 42q143 0 255.5 -71.5t171.5 -188.5t59 -256q0 -103 -34.5 -197t-96.5 -164.5t-154.5 -112.5t-200.5 -42t-199.5 42t-153 112.5t-96 164.5t-34.5 197zM272 500q0 -166 81.5 -267.5t221.5 -101.5t223 101.5t83 267.5 t-83 267t-223 101t-221.5 -101t-81.5 -267zM322 1149v190h167v-190h-167zM678 1149v190h168v-190h-168z" />
<glyph unicode="&#xf7;" horiz-adv-x="1116" d="M102 377v127h912v-127h-912zM438 115q0 51 35 86t86 35t86 -35t35 -86t-35 -86t-86 -35t-86 35t-35 86zM438 766q0 51 35 86t86 35t86 -35t35 -86t-35 -86t-86 -35t-86 35t-35 86z" />
<glyph unicode="&#xf8;" horiz-adv-x="1153" d="M92 33l115 125q-115 143 -115 342q0 103 34.5 197t96 164.5t153 112.5t199.5 42q186 0 320 -121l113 121l53 -49l-115 -125q115 -143 115 -342q0 -103 -34.5 -197t-96.5 -164.5t-154.5 -112.5t-200.5 -42q-186 0 -317 118l-113 -118zM272 500q0 -126 52 -219l460 499 q-80 86 -209 86q-140 0 -221.5 -100t-81.5 -266zM367 219q82 -88 208 -88q140 0 222 101.5t82 267.5q0 126 -52 219z" />
<glyph unicode="&#xf9;" horiz-adv-x="1167" d="M143 350v647h183v-624q0 -226 211 -226q112 0 199 89.5t87 232.5v528h181v-997h-179v174q-53 -86 -144 -138t-200 -52q-165 0 -251.5 98t-86.5 268zM244 1384h196l193 -256h-131z" />
<glyph unicode="&#xfa;" horiz-adv-x="1167" d="M143 350v647h183v-624q0 -226 211 -226q112 0 199 89.5t87 232.5v528h181v-997h-179v174q-53 -86 -144 -138t-200 -52q-165 0 -251.5 98t-86.5 268zM479 1128l195 256h196l-258 -256h-133z" />
<glyph unicode="&#xfb;" horiz-adv-x="1167" d="M143 350v647h183v-624q0 -226 211 -226q112 0 199 89.5t87 232.5v528h181v-997h-179v174q-53 -86 -144 -138t-200 -52q-165 0 -251.5 98t-86.5 268zM274 1126l213 258h152l215 -258h-145l-146 164l-145 -164h-144z" />
<glyph unicode="&#xfc;" horiz-adv-x="1167" d="M143 350v647h183v-624q0 -226 211 -226q112 0 199 89.5t87 232.5v528h181v-997h-179v174q-53 -86 -144 -138t-200 -52q-165 0 -251.5 98t-86.5 268zM317 1149v190h168v-190h-168zM674 1149v190h168v-190h-168z" />
<glyph unicode="&#xfd;" horiz-adv-x="960" d="M0 997h178l299 -802l297 802h176l-516 -1343h-174l135 346zM426 1128l195 256h196l-258 -256h-133z" />
<glyph unicode="&#xfe;" horiz-adv-x="1187" d="M164 -344v1710h180v-532q53 86 135.5 134t182.5 48q87 0 159.5 -30t122.5 -80t85 -117t51 -140t16 -149q0 -78 -16 -151.5t-50.5 -140t-84.5 -116t-123 -79t-160 -29.5q-208 0 -318 182v-510h-180zM344 500q0 -160 76.5 -264.5t210.5 -104.5q91 0 156.5 50.5t96.5 132.5 t31 186q0 160 -74 263t-210 103q-134 0 -210.5 -103.5t-76.5 -262.5z" />
<glyph unicode="&#xff;" horiz-adv-x="960" d="M0 997h178l299 -802l297 802h176l-516 -1343h-174l135 346zM229 1149v190h168v-190h-168zM586 1149v190h168v-190h-168z" />
<glyph unicode="&#x152;" horiz-adv-x="2097" d="M102 682q0 191 84.5 346.5t236.5 245.5t341 90h1200v-162h-756v-416h707v-163h-707v-461h754v-162h-1198q-189 0 -341 90t-236.5 245.5t-84.5 346.5zM289 682q0 -232 130 -375t345 -143h258v1036h-258q-215 0 -345 -143t-130 -375z" />
<glyph unicode="&#x153;" horiz-adv-x="1894" d="M92 500q0 103 34.5 197t96 164.5t153 112.5t199.5 42q128 0 229 -58t163 -157q61 100 159.5 157.5t225.5 57.5q141 0 244 -69t154.5 -185t51.5 -264v-56h-743q9 -148 102 -229.5t256 -81.5q132 0 297 43l33 -137q-162 -53 -330 -53q-153 0 -268.5 57.5t-181.5 159.5 q-62 -100 -163 -158.5t-229 -58.5q-108 0 -199.5 42t-153 112.5t-96 164.5t-34.5 197zM272 500q0 -166 81.5 -267.5t221.5 -101.5t222 101.5t82 267.5t-82 267t-222 101t-221.5 -101t-81.5 -267zM1061 571h565q-11 137 -81 217t-193 80q-122 0 -199.5 -80t-91.5 -217z" />
<glyph unicode="&#x178;" horiz-adv-x="1210" d="M-10 1364h194l422 -647l420 647h195l-521 -815v-549h-188v549zM344 1483v190h166v-190h-166zM700 1483v190h166v-190h-166z" />
<glyph unicode="&#x2c6;" horiz-adv-x="784" d="M102 1126l213 258h152l215 -258h-145l-146 164l-145 -164h-144z" />
<glyph unicode="&#x2dc;" horiz-adv-x="790" d="M102 1174q24 75 70.5 126t114.5 48q33 -1 68 -16t59.5 -31.5t52.5 -30.5t49 -15q17 -1 32 8.5t26 27.5t17 30.5t13 32.5l84 -33q-24 -75 -70 -126t-114 -48q-42 2 -85.5 25t-80.5 45.5t-62 23.5q-23 1 -42 -17t-28 -36.5t-18 -44.5z" />
<glyph unicode="&#x2000;" horiz-adv-x="891" />
<glyph unicode="&#x2001;" horiz-adv-x="1782" />
<glyph unicode="&#x2002;" horiz-adv-x="891" />
<glyph unicode="&#x2003;" horiz-adv-x="1782" />
<glyph unicode="&#x2004;" horiz-adv-x="594" />
<glyph unicode="&#x2005;" horiz-adv-x="445" />
<glyph unicode="&#x2006;" horiz-adv-x="297" />
<glyph unicode="&#x2007;" horiz-adv-x="297" />
<glyph unicode="&#x2008;" horiz-adv-x="222" />
<glyph unicode="&#x2009;" horiz-adv-x="356" />
<glyph unicode="&#x200a;" horiz-adv-x="99" />
<glyph unicode="&#x2010;" horiz-adv-x="727" d="M102 485v158h523v-158h-523z" />
<glyph unicode="&#x2011;" horiz-adv-x="727" d="M102 485v158h523v-158h-523z" />
<glyph unicode="&#x2012;" horiz-adv-x="727" d="M102 485v158h523v-158h-523z" />
<glyph unicode="&#x2013;" horiz-adv-x="1128" d="M102 485v158h924v-158h-924z" />
<glyph unicode="&#x2014;" horiz-adv-x="1591" d="M102 485v158h1387v-158h-1387z" />
<glyph unicode="&#x2018;" horiz-adv-x="509" d="M164 866v238l106 260h92l-96 -260h111v-238h-213z" />
<glyph unicode="&#x2019;" horiz-adv-x="509" d="M133 1126v238h213v-238l-106 -260h-93l97 260h-111z" />
<glyph unicode="&#x201a;" horiz-adv-x="520" d="M143 0v238h213v-238l-106 -260h-90l94 260h-111z" />
<glyph unicode="&#x201c;" horiz-adv-x="884" d="M164 866v238l106 260h92l-96 -260h111v-238h-213zM539 866v238l104 260h94l-96 -260h111v-238h-213z" />
<glyph unicode="&#x201d;" horiz-adv-x="882" d="M133 1126v238h213v-238l-106 -260h-93l95 260h-109zM508 1126v238h211v-238l-107 -260h-92l96 260h-108z" />
<glyph unicode="&#x201e;" horiz-adv-x="892" d="M143 0v238h213v-238l-106 -260h-92l94 260h-109zM518 0v238h211v-238l-106 -260h-91l95 260h-109z" />
<glyph unicode="&#x2022;" horiz-adv-x="649" d="M102 731q0 92 65 156.5t157 64.5t157.5 -64.5t65.5 -156.5t-65.5 -157.5t-157.5 -65.5t-157 65.5t-65 157.5z" />
<glyph unicode="&#x2026;" horiz-adv-x="1615" d="M164 0v238h213v-238h-213zM702 0v238h211v-238h-211zM1239 0v238h213v-238h-213z" />
<glyph unicode="&#x202f;" horiz-adv-x="356" />
<glyph unicode="&#x2039;" horiz-adv-x="788" d="M61 500l469 497l84 -79l-391 -418l391 -420l-84 -80z" />
<glyph unicode="&#x203a;" horiz-adv-x="790" d="M174 80l393 420l-393 418l86 79l469 -497l-469 -500z" />
<glyph unicode="&#x205f;" horiz-adv-x="445" />
<glyph unicode="&#x20ac;" horiz-adv-x="1472" d="M51 492v100h199q-6 43 -6 88q0 42 6 86h-199v98h217q63 230 260 375t469 145q201 0 353 -51l-33 -153q-172 41 -307 41q-207 0 -351.5 -96t-197.5 -261h405v-98h-428q-6 -41 -6 -86q0 -44 6 -88h428v-100h-403q55 -162 199 -256.5t348 -94.5q144 0 307 41l33 -151 q-178 -54 -353 -54q-270 0 -466.5 143.5t-260.5 371.5h-219z" />
<glyph unicode="&#x2122;" horiz-adv-x="1411" d="M61 1288v76h517v-76h-216v-549h-86v549h-215zM711 739v625h80l223 -422l223 422h82v-625h-82v469l-197 -374h-49l-198 374v-469h-82z" />
<glyph unicode="&#xe000;" horiz-adv-x="993" d="M0 0v993h993v-993h-993z" />
<glyph unicode="&#xfb01;" horiz-adv-x="1191" d="M72 858v131h145v92q0 89 23.5 155.5t66 104.5t95.5 56t118 18q74 0 168 -24l-20 -136q-69 15 -125 15q-146 0 -146 -180v-101h215v-131h-215v-858h-180v858h-145zM848 0v997h180v-997h-180zM848 1163v219h180v-219h-180z" />
<glyph unicode="&#xfb02;" horiz-adv-x="1302" d="M72 858v131h145v92q0 89 23.5 155.5t66 104.5t95.5 56t118 18q74 0 168 -24l-20 -136q-69 15 -125 15q-146 0 -146 -180v-101h215v-131h-215v-858h-180v858h-145zM823 285v1079h178v-1069q0 -87 31.5 -124.5t102.5 -37.5h90v-143h-117q-133 0 -209 72t-76 223z" />
</font>
</defs>
</svg>
