<?xml version="1.0" standalone="no"?>
<!DOCTYPE svg PUBLIC "-//W3C//DTD SVG 1.1//EN" "http://www.w3.org/Graphics/SVG/1.1/DTD/svg11.dtd" >
<svg xmlns="http://www.w3.org/2000/svg">
<metadata></metadata>
<defs>
<font id="locatorlight" horiz-adv-x="1284" >
<font-face units-per-em="2048" ascent="1638" descent="-410" />
<missing-glyph horiz-adv-x="450" />
<glyph horiz-adv-x="2048" />
<glyph horiz-adv-x="2048" />
<glyph unicode="&#xd;" horiz-adv-x="2048" />
<glyph unicode=" "  horiz-adv-x="450" />
<glyph unicode="&#x09;" horiz-adv-x="450" />
<glyph unicode="&#xa0;" horiz-adv-x="450" />
<glyph unicode="!" horiz-adv-x="563" d="M205 0v193h153v-193h-153zM221 954v410h121v-410l-31 -635h-59z" />
<glyph unicode="&#x22;" horiz-adv-x="823" d="M184 815v549h119v-549h-119zM520 815v549h119v-549h-119z" />
<glyph unicode="#" horiz-adv-x="1374" d="M102 444l23 93h244l69 303h-243l20 94h246l98 430h103l-99 -430h385l99 430h102l-98 -430h241l-22 -94h-242l-70 -303h242l-20 -93h-244l-102 -444h-103l103 444h-383l-103 -444h-102l102 444h-246zM471 537h385l70 303h-385z" />
<glyph unicode="$" horiz-adv-x="1222" d="M133 86l31 96q274 -102 475 -102q164 0 258 65.5t94 178.5q0 54 -14 90.5t-57 74.5t-111 73.5t-186 84.5q-259 109 -353 201.5t-94 238.5q0 147 105 219t315 78v201h96v-201q201 -10 379 -67l-20 -94q-244 59 -412 59q-182 0 -263 -45.5t-81 -153.5q0 -48 14.5 -86 t39 -67t73.5 -59.5t101 -55t139 -61.5q124 -51 201 -92t136.5 -91t85 -108.5t25.5 -134.5q0 -146 -113 -242.5t-319 -105.5v-185h-96v185q-202 10 -449 106z" />
<glyph unicode="%" horiz-adv-x="1705" d="M102 1034q0 87 36 166t110 131.5t170 52.5t169.5 -52.5t109.5 -131.5t36 -166t-36 -166t-109.5 -131.5t-169.5 -52.5t-170 52.5t-110 131.5t-36 166zM197 1034q0 -110 59 -189t162 -79t162 79t59 189t-59 189.5t-162 79.5t-162 -79.5t-59 -189.5zM428 0l725 1364h94 l-725 -1364h-94zM942 332q0 87 36 166t109.5 131.5t169.5 52.5t170 -52.5t110 -131.5t36 -166t-36 -165.5t-110 -130.5t-170 -52t-169.5 52t-109.5 130.5t-36 165.5zM1036 332q0 -110 59 -189.5t162 -79.5t162.5 79.5t59.5 189.5t-59.5 189t-162.5 79t-162 -79t-59 -189z " />
<glyph unicode="&#x26;" horiz-adv-x="1308" d="M123 336q0 140 74.5 252.5t259.5 228.5q-90 127 -122 193.5t-32 136.5q0 110 69.5 173.5t198.5 63.5q119 0 189.5 -68t70.5 -173q0 -100 -51.5 -186.5t-173.5 -165.5l342 -447q50 68 83.5 150.5t72.5 212.5l90 -25q-20 -103 -68 -218.5t-114 -203.5l198 -260h-139 l-133 172q-84 -92 -194.5 -143.5t-235.5 -51.5q-97 0 -183.5 41t-144 125t-57.5 193zM244 340q0 -116 77.5 -186t198.5 -70q197 0 357 170q-358 472 -363 479q-83 -51 -138 -101t-83 -99.5t-38.5 -93.5t-10.5 -99zM410 1147q0 -46 22 -99t47 -90t68 -92q178 113 178 277 q0 68 -42.5 108.5t-115.5 40.5q-71 0 -114 -37t-43 -108z" />
<glyph unicode="'" horiz-adv-x="487" d="M184 815v549h119v-549h-119z" />
<glyph unicode="(" horiz-adv-x="677" d="M184 623q0 257 78 483t238 455l86 -60q-160 -254 -220.5 -450.5t-60.5 -427.5t60.5 -428t220.5 -451l-86 -59q-160 229 -238 455t-78 483z" />
<glyph unicode=")" horiz-adv-x="677" d="M92 -256q160 254 220.5 451t60.5 428t-60.5 427.5t-220.5 450.5l86 60q160 -229 238 -455t78 -483t-78 -483t-238 -455z" />
<glyph unicode="*" horiz-adv-x="983" d="M102 811l322 143l-322 144l60 108l297 -196l-29 354h123l-29 -354l297 196l60 -108l-322 -144l322 -143l-60 -109l-297 197l29 -354h-123l29 354l-297 -197z" />
<glyph unicode="+" horiz-adv-x="1222" d="M123 440v97h438v440h103v-440h436v-97h-436v-440h-103v440h-438z" />
<glyph unicode="," horiz-adv-x="481" d="M154 0v193h153v-193l-74 -217h-67l72 217h-84z" />
<glyph unicode="-" horiz-adv-x="722" d="M113 500v114h497v-114h-497z" />
<glyph unicode="." horiz-adv-x="501" d="M174 0v193h154v-193h-154z" />
<glyph unicode="/" horiz-adv-x="944" d="M123 -240l592 1624h106l-592 -1624h-106z" />
<glyph unicode="0" horiz-adv-x="1214" d="M113 672q0 147 31 271.5t91.5 219t156 148t216.5 53.5t216.5 -53.5t155.5 -148t91 -219t31 -271.5t-31 -272t-91 -220t-155.5 -149t-216.5 -54t-216.5 54t-156 149t-91.5 220t-31 272zM231 672q0 -127 22 -232t67 -186t118.5 -125.5t169.5 -44.5t169.5 44.5t117.5 125.5 t66 185.5t22 232.5q0 172 -37.5 300t-123.5 206.5t-214 78.5q-96 0 -169.5 -44.5t-118.5 -124t-67 -184.5t-22 -232z" />
<glyph unicode="1" horiz-adv-x="780" d="M51 1266l385 77h119v-1343h-119v1239l-366 -65z" />
<glyph unicode="2" horiz-adv-x="1191" d="M143 0v94q0 170 91 280t354 267q183 109 249 191t66 184q0 124 -91 182.5t-280 58.5q-146 0 -350 -55l-22 98q195 64 397 64q234 0 349.5 -93t115.5 -251q0 -132 -72.5 -231.5t-238.5 -200.5q-119 -72 -190 -120t-126.5 -93t-81 -85.5t-37.5 -83t-12 -100.5h780v-106 h-901z" />
<glyph unicode="3" horiz-adv-x="1138" d="M123 43l24 96q193 -55 347 -55q178 0 284.5 81.5t106.5 213.5q0 125 -96.5 202.5t-270.5 77.5h-225v103h225q140 0 221.5 72.5t81.5 179.5q0 113 -88.5 178t-234.5 65q-149 0 -316 -55l-26 96q166 66 338 66q204 0 325 -98t121 -252q0 -87 -52.5 -167t-148.5 -126 q120 -35 193.5 -128.5t73.5 -213.5q0 -170 -140.5 -286t-371.5 -116q-191 0 -371 66z" />
<glyph unicode="4" horiz-adv-x="1191" d="M68 371v106l700 866h119v-866h223v-106h-223v-371h-119v371h-700zM205 477h563v707z" />
<glyph unicode="5" horiz-adv-x="1220" d="M158 78l32 92q126 -48 207 -67t187 -19q122 0 208.5 50t126 128.5t39.5 175.5q0 145 -82 224t-233 79q-85 0 -159 -21.5t-169 -80.5l-94 37q2 2 86 667h707v-106h-619l-63 -483q150 94 327 94q195 0 306.5 -112.5t111.5 -286.5q0 -91 -32.5 -175t-92.5 -150.5 t-155.5 -106.5t-212.5 -40q-122 0 -222 26t-204 75z" />
<glyph unicode="6" horiz-adv-x="1189" d="M123 561q0 378 182 590.5t516 212.5q89 0 168 -21l-14 -100q-103 14 -162 14q-259 0 -403.5 -156.5t-171.5 -436.5q132 176 374 176q196 0 315.5 -118t119.5 -292q0 -115 -53 -217.5t-156 -169t-234 -66.5q-219 0 -350 148t-131 436zM246 420q0 -66 21.5 -124.5 t63.5 -106.5t111.5 -76.5t157.5 -28.5q151 0 239.5 98t88.5 238q0 145 -85 228t-235 83q-151 0 -256.5 -88t-105.5 -223z" />
<glyph unicode="7" horiz-adv-x="1034" d="M113 1237v106h860v-106l-588 -1237h-123l590 1237h-739z" />
<glyph unicode="8" horiz-adv-x="1191" d="M113 379q0 115 66.5 205.5t185.5 136.5q-86 50 -135.5 127.5t-49.5 165.5q0 152 116.5 251t301.5 99t301.5 -99t116.5 -251q0 -88 -49.5 -165.5t-135.5 -127.5q117 -46 182.5 -136t65.5 -206q0 -79 -32 -151t-91 -128t-152 -89.5t-206 -33.5t-206.5 33.5t-153.5 89.5 t-92.5 128t-32.5 151zM231 379q0 -131 101 -213t266 -82t264 81.5t99 213.5q0 125 -95.5 202.5t-267.5 77.5q-173 0 -270 -77.5t-97 -202.5zM299 1014q0 -109 78.5 -180.5t220.5 -71.5t220.5 71.5t78.5 180.5q0 112 -83.5 179t-215.5 67t-215.5 -67t-83.5 -179z" />
<glyph unicode="9" horiz-adv-x="1191" d="M143 924q0 114 55.5 214t158.5 163t229 63q219 0 351 -149t132 -437q0 -378 -182.5 -589.5t-517.5 -211.5q-87 0 -166 21l12 98q99 -12 162 -12q259 0 403.5 156t171.5 436q-64 -86 -154 -130t-220 -44t-230.5 59t-152.5 154.5t-52 208.5zM262 920q0 -145 85 -228.5 t235 -83.5q151 0 256.5 88t105.5 224q0 66 -21.5 125t-63.5 107t-111.5 76.5t-157.5 28.5q-151 0 -239.5 -98.5t-88.5 -238.5z" />
<glyph unicode=":" horiz-adv-x="501" d="M174 0v193h154v-193h-154zM174 784v193h154v-193h-154z" />
<glyph unicode=";" horiz-adv-x="491" d="M164 0v193h153v-193l-71 -217h-68l72 217h-86zM164 784v193h153v-193h-153z" />
<glyph unicode="&#x3c;" horiz-adv-x="1177" d="M72 463v76l972 477v-115l-827 -401l827 -400v-116z" />
<glyph unicode="=" horiz-adv-x="1120" d="M123 219v107h874v-107h-874zM123 598v107h874v-107h-874z" />
<glyph unicode="&#x3e;" horiz-adv-x="1177" d="M133 -23v117l828 406l-828 405v117l973 -483v-78z" />
<glyph unicode="?" horiz-adv-x="1034" d="M123 1333q196 51 399 51q195 0 292 -77t97 -224q0 -144 -84 -290.5t-317 -425.5l-72 59q63 82 91 118.5t73.5 97t63.5 88.5t46 72.5t37.5 70.5t22 62.5t16 67t3.5 66.5q0 105 -64 157t-217 52q-177 0 -367 -41zM395 0v190h154v-190h-154z" />
<glyph unicode="@" horiz-adv-x="1505" d="M143 682q0 204 77.5 364.5t214.5 249t308 88.5q203 0 308.5 -109t105.5 -288v-627h-96v95q-73 -105 -199 -105q-96 0 -164 50t-97.5 123t-29.5 159t29.5 159t97.5 123t164 50q58 0 110.5 -24.5t86.5 -67.5l-2 69q-8 307 -314 307q-151 0 -266 -80t-175 -219.5t-60 -316.5 q0 -179 81 -321t226 -222t328 -80q243 0 520 97l26 -68q-120 -52 -264 -81.5t-282 -29.5q-148 0 -282 51t-234 141t-159 223.5t-59 289.5zM657 682q0 -117 52.5 -185.5t152.5 -68.5q97 0 154 69.5t57 184.5t-57 184.5t-154 69.5q-100 0 -152.5 -68.5t-52.5 -185.5z" />
<glyph unicode="A" d="M31 0l565 1364h90l567 -1364h-125l-151 381h-670l-151 -381h-125zM348 481h588l-295 733z" />
<glyph unicode="B" horiz-adv-x="1327" d="M205 0v1364h549q216 0 328 -93.5t112 -254.5q0 -96 -56.5 -179t-158.5 -120q127 -40 191.5 -128t64.5 -210q0 -74 -28 -142t-79.5 -121t-131 -84.5t-175.5 -31.5h-616zM328 106h485q136 0 217.5 72.5t81.5 200.5q0 124 -77.5 199t-225.5 75h-481v-547zM328 756h422 q89 0 159 25.5t115 83t45 141.5q0 126 -83.5 188.5t-227.5 62.5h-430v-501z" />
<glyph unicode="C" horiz-adv-x="1294" d="M82 682q0 147 54 275.5t150.5 223t238.5 149t309 54.5q191 0 327 -43l-20 -100q-148 37 -312 37q-180 0 -321 -73.5t-221 -210t-80 -312.5t80.5 -313t222 -211t319.5 -74q156 0 308 37l24 -98q-159 -46 -327 -46q-162 0 -303 55t-239 149.5t-154 224.5t-56 276z" />
<glyph unicode="D" horiz-adv-x="1361" d="M205 0v1364h272q229 0 413 -88t287 -244t103 -350t-103 -350t-287 -244t-413 -88h-272zM328 106h168q125 0 242.5 39t210.5 110.5t149.5 182.5t56.5 244t-56.5 244t-149.5 182t-210.5 110t-242.5 39h-168v-1151z" />
<glyph unicode="E" horiz-adv-x="1257" d="M205 0v1364h909v-107h-784v-497h733v-107h-733v-547h784v-106h-909z" />
<glyph unicode="F" horiz-adv-x="1214" d="M205 0v1364h917v-107h-792v-497h739v-107h-739v-653h-125z" />
<glyph unicode="G" horiz-adv-x="1396" d="M82 682q0 152 52.5 281.5t148 222.5t236.5 145.5t312 52.5q201 0 355 -43l-19 -100q-166 37 -340 37q-276 0 -449 -160.5t-173 -435.5q0 -175 82 -312.5t223.5 -211.5t316.5 -74q137 0 295 31v487h111v-565q-189 -60 -399 -60q-160 0 -300 55t-239 149.5t-156 224.5 t-57 276z" />
<glyph unicode="H" horiz-adv-x="1433" d="M205 0v1364h123v-604h776v604h125v-1364h-125v651h-776v-651h-123z" />
<glyph unicode="I" horiz-adv-x="552" d="M215 0v1364h123v-1364h-123z" />
<glyph unicode="J" horiz-adv-x="927" d="M113 0v106h239q134 0 201.5 79.5t67.5 205.5v866h-461v107h583v-973q0 -172 -102 -281.5t-285 -109.5h-243z" />
<glyph unicode="K" horiz-adv-x="1275" d="M205 0v1364h123v-608l702 608h168l-764 -662l811 -702h-168l-749 649v-649h-123z" />
<glyph unicode="L" horiz-adv-x="1105" d="M205 0v1364h123v-1258h716v-106h-839z" />
<glyph unicode="M" horiz-adv-x="1671" d="M205 0v1364h119l512 -1022l512 1022h118v-1364h-118v1139l-474 -959h-77l-473 959v-1139h-119z" />
<glyph unicode="N" horiz-adv-x="1523" d="M205 0v1364h119l874 -1171v1171h121v-1364h-121l-874 1174v-1174h-119z" />
<glyph unicode="O" horiz-adv-x="1511" d="M113 680q0 143 47 271.5t130 224t204.5 152t261.5 56.5t261.5 -56.5t204.5 -152t130 -224t47 -271.5q0 -191 -80 -351t-228 -256t-335 -96t-335 96t-228 256t-80 351zM236 680q0 -170 65.5 -305.5t184.5 -213t270 -77.5t270 77.5t184.5 213t65.5 305.5t-65.5 306 t-184.5 214t-270 78t-270 -78t-184.5 -214t-65.5 -306z" />
<glyph unicode="P" horiz-adv-x="1288" d="M205 0v1364h618q96 0 175.5 -33.5t131 -89t79.5 -126t28 -146.5t-28 -146.5t-79.5 -126t-131 -88.5t-175.5 -33h-495v-575h-123zM328 678h495q134 0 212.5 80.5t78.5 210.5q0 125 -85.5 206.5t-205.5 81.5h-495v-579z" />
<glyph unicode="Q" horiz-adv-x="1513" d="M113 682q0 191 80.5 351t229 255.5t335.5 95.5t335 -95.5t228 -255.5t80 -351q0 -181 -71.5 -334.5t-205.5 -252.5t-305 -115v-363h-125v363q-171 16 -304.5 115t-205 252.5t-71.5 334.5zM238 682q0 -170 65.5 -306t184.5 -214t270 -78t270 78t184.5 214t65.5 306 t-65.5 305.5t-184.5 213t-270 77.5t-270 -77.5t-184.5 -213t-65.5 -305.5z" />
<glyph unicode="R" horiz-adv-x="1429" d="M205 0v1364h616q127 0 223 -55.5t143.5 -142.5t47.5 -189q0 -132 -80.5 -237t-222.5 -136l446 -604h-139l-436 592h-475v-592h-123zM328 694h493q135 0 213 77t78 206q0 124 -85 202t-206 78h-493v-563z" />
<glyph unicode="S" d="M133 86l31 98q269 -100 510 -100q177 0 281 69t104 171q0 65 -29 110t-116.5 96.5t-256.5 116.5q-192 74 -294 136.5t-144.5 132t-42.5 169.5q0 153 128 226t366 73q104 0 241 -18.5t232 -48.5l-21 -98q-244 59 -448 59q-201 0 -288 -45t-87 -150q0 -30 4 -54t16.5 -46.5 t25.5 -39.5t43.5 -38t56.5 -36t77.5 -39t95 -42.5t119.5 -50.5q144 -60 232 -108t135 -97t62.5 -94t15.5 -110q0 -151 -137 -251t-367 -100q-268 0 -545 109z" />
<glyph unicode="T" horiz-adv-x="1122" d="M31 1257v107h1061v-107h-469v-1257h-123v1257h-469z" />
<glyph unicode="U" horiz-adv-x="1443" d="M184 477v887h125v-895q0 -180 114.5 -282.5t299.5 -102.5q181 0 297.5 107t116.5 278v895h123v-887q0 -99 -36 -188t-102 -159t-169.5 -111.5t-229.5 -41.5t-229.5 41.5t-170.5 111.5t-103 159.5t-36 187.5z" />
<glyph unicode="V" horiz-adv-x="1198" d="M10 1364h123l465 -1194l465 1194h125l-543 -1364h-92z" />
<glyph unicode="W" horiz-adv-x="1763" d="M20 1364h123l328 -1159l350 1159h119l350 -1159l328 1159h125l-397 -1364h-103l-362 1198l-363 -1198h-102z" />
<glyph unicode="X" horiz-adv-x="1349" d="M41 0l559 686l-555 678h152l479 -586l479 586h150l-555 -678l559 -686h-150l-483 594l-486 -594h-149z" />
<glyph unicode="Y" horiz-adv-x="1210" d="M-10 1364h135l481 -694l479 694h136l-553 -809v-555h-125v555z" />
<glyph unicode="Z" horiz-adv-x="1316" d="M123 0v106l942 1151h-913v107h1060v-107l-944 -1151h946v-106h-1091z" />
<glyph unicode="[" horiz-adv-x="591" d="M205 -258v1876h346v-107h-227v-1663h227v-106h-346z" />
<glyph unicode="\" horiz-adv-x="944" d="M123 1384h106l592 -1624h-106z" />
<glyph unicode="]" horiz-adv-x="591" d="M41 -152h227v1663h-227v107h346v-1876h-346v106z" />
<glyph unicode="^" horiz-adv-x="935" d="M72 670l366 694h60l366 -694h-108l-287 553l-287 -553h-110z" />
<glyph unicode="_" horiz-adv-x="888" d="M-2 -23h893v-67h-893v67z" />
<glyph unicode="`" horiz-adv-x="614" d="M133 1376h141l197 -248h-102z" />
<glyph unicode="a" horiz-adv-x="1009" d="M98 276q0 134 84 208.5t240 74.5h336v115q0 235 -291 235q-115 0 -303 -30l-17 98q150 39 324 39q199 0 302.5 -90.5t103.5 -243.5v-682h-119v125q-45 -65 -130 -103t-194 -38q-158 0 -247 74t-89 218zM217 268q0 -178 215 -178q151 0 238.5 77.5t87.5 211.5v74h-328 q-112 0 -162.5 -44.5t-50.5 -140.5z" />
<glyph unicode="b" horiz-adv-x="1163" d="M174 0v1364h121v-549q52 96 136 148.5t192 52.5q91 0 165.5 -30t124 -80t84 -117.5t49.5 -139.5t15 -149t-15.5 -149t-49.5 -139.5t-84 -117.5t-124.5 -80t-164.5 -30q-108 0 -192.5 52t-135.5 148v-184h-121zM295 500q0 -113 35.5 -204.5t110 -148.5t177.5 -57t177.5 56 t110.5 147.5t36 206.5t-36 206t-110.5 147t-177.5 56t-177.5 -57t-110 -148t-35.5 -204z" />
<glyph unicode="c" horiz-adv-x="966" d="M102 500q0 223 139.5 369.5t372.5 146.5q134 0 250 -39l-20 -98q-102 30 -217 30q-198 0 -302 -110.5t-104 -298.5t104.5 -299t301.5 -111q104 0 217 31l20 -101q-113 -36 -250 -36q-233 0 -372.5 146.5t-139.5 369.5z" />
<glyph unicode="d" horiz-adv-x="1163" d="M102 500q0 77 15.5 149t50 139.5t84.5 117.5t125 80t166 30q108 0 191.5 -52.5t135.5 -148.5v549h119v-1364h-119v184q-51 -96 -135 -148t-192 -52q-90 0 -165 30t-125 80t-85 117t-50.5 140t-15.5 149zM223 500q0 -115 36 -206.5t110.5 -147.5t177.5 -56t177.5 57 t110 148.5t35.5 204.5t-35.5 204t-110 148t-177.5 57t-177.5 -56t-110.5 -147t-36 -206z" />
<glyph unicode="e" horiz-adv-x="1101" d="M98 500q0 140 53.5 256t160 188t247.5 72q106 0 191 -41.5t138.5 -113t82 -164t28.5 -197.5v-43h-778q15 -179 117 -273t276 -94q142 0 304 43l24 -98q-168 -51 -326 -51q-239 0 -378.5 143.5t-139.5 372.5zM221 559h656q-12 163 -93.5 256.5t-224.5 93.5 q-144 0 -233.5 -94.5t-104.5 -255.5z" />
<glyph unicode="f" horiz-adv-x="667" d="M82 899v98h154v109q0 72 17 128t43.5 89.5t64 54.5t74.5 29t79 8q65 0 143 -20l-16 -97q-66 15 -129 15q-158 0 -158 -201v-115h232v-98h-232v-899h-118v899h-154z" />
<glyph unicode="g" horiz-adv-x="1142" d="M92 512q0 81 15 154t48.5 137.5t82.5 111.5t120.5 74t159.5 27q109 0 200 -53t142 -148v182h119v-919q0 -213 -118 -331t-349 -118q-76 0 -170 16.5t-164 43.5l25 92q171 -49 299 -49q192 0 275 84t83 264v129q-51 -94 -141.5 -146.5t-200.5 -52.5q-108 0 -192 41 t-134 111.5t-75 159t-25 190.5zM213 512q0 -85 18 -155t55 -125t98.5 -85t143.5 -30q158 0 245 105t87 290t-87 291t-245 106q-82 0 -144 -30.5t-98.5 -85.5t-54.5 -125.5t-18 -155.5z" />
<glyph unicode="h" horiz-adv-x="1157" d="M174 0v1364h119v-553q56 95 146.5 150t203.5 55q165 0 252.5 -95t87.5 -259v-662h-119v653q0 128 -56.5 189t-180.5 61q-63 0 -122.5 -27t-107 -76.5t-76 -126t-28.5 -167.5v-506h-119z" />
<glyph unicode="i" horiz-adv-x="466" d="M174 0v997h119v-997h-119zM174 1163v201h119v-201h-119z" />
<glyph unicode="j" horiz-adv-x="501" d="M-61 -350l16 96q65 -14 123 -14q78 0 109.5 44.5t31.5 133.5v1087h119v-1079q0 -144 -65 -216.5t-187 -72.5q-68 0 -147 21zM219 1163v201h119v-201h-119z" />
<glyph unicode="k" horiz-adv-x="985" d="M174 0v1364h121v-784l469 417h166l-551 -483l586 -514h-164l-506 449v-449h-121z" />
<glyph unicode="l" horiz-adv-x="608" d="M164 262v1102h119v-1108q0 -88 35 -127t110 -39h88v-102h-96q-121 0 -188.5 66.5t-67.5 207.5z" />
<glyph unicode="m" horiz-adv-x="1814" d="M174 0v997h121v-186q56 96 142 150.5t198 54.5q246 0 317 -211q57 97 152 154t209 57q165 0 251.5 -95t86.5 -259v-662h-121v653q0 129 -55.5 189.5t-178.5 60.5q-132 0 -227.5 -107t-95.5 -288v-508h-121v653q0 129 -55.5 189.5t-178.5 60.5q-132 0 -227.5 -108 t-95.5 -289v-506h-121z" />
<glyph unicode="n" horiz-adv-x="1148" d="M174 0v997h121v-186q56 95 146 150t202 55q165 0 253.5 -95.5t88.5 -258.5v-662h-119v653q0 128 -57.5 189t-181.5 61q-63 0 -122 -27t-106 -76.5t-75.5 -126t-28.5 -167.5v-506h-121z" />
<glyph unicode="o" horiz-adv-x="1134" d="M102 500q0 140 54.5 256t162 188t248.5 72t248.5 -72t162 -188t54.5 -256t-54.5 -256t-162 -188t-248.5 -72t-248.5 72t-162 188t-54.5 256zM223 500q0 -185 93 -297.5t251 -112.5t252 112.5t94 297.5q0 184 -93.5 296.5t-252.5 112.5q-158 0 -251 -112t-93 -297z" />
<glyph unicode="p" horiz-adv-x="1163" d="M174 -354v1351h121v-182q52 96 136 148.5t192 52.5q90 0 164.5 -30t124.5 -80t84 -117.5t49.5 -139.5t15.5 -149t-15 -149t-49.5 -139.5t-84 -117.5t-124 -80t-165.5 -30q-108 0 -192.5 52t-135.5 148v-538h-121zM295 500q0 -113 35.5 -204.5t110 -148.5t177.5 -57 t177.5 56t110.5 147.5t36 206.5t-36 206t-110.5 147t-177.5 56t-177.5 -57t-110 -148t-35.5 -204z" />
<glyph unicode="q" horiz-adv-x="1163" d="M102 500q0 77 15.5 149t50 139.5t84.5 117.5t124.5 80t164.5 30q108 0 191.5 -52.5t135.5 -148.5v182h121v-1351h-121v538q-51 -96 -135 -148t-192 -52q-91 0 -165.5 30t-124.5 80t-84.5 117.5t-49.5 139.5t-15 149zM221 500q0 -115 36 -206.5t110.5 -147.5t177.5 -56 t177.5 57t110 148.5t35.5 204.5t-35.5 204t-110 148t-177.5 57t-177.5 -56t-110.5 -147t-36 -206z" />
<glyph unicode="r" horiz-adv-x="702" d="M174 0v997h121v-213q49 96 152 164t215 68v-117q-100 0 -185 -56t-133.5 -147.5t-48.5 -195.5v-500h-121z" />
<glyph unicode="s" horiz-adv-x="929" d="M102 74l33 92q166 -76 320 -76q123 0 193.5 40.5t70.5 121.5q0 67 -53 103.5t-254 117.5q-164 66 -220.5 133.5t-56.5 173.5q0 116 98 176t254 60q154 0 308 -47l-19 -97q-159 37 -282 37q-128 0 -184 -33.5t-56 -107.5q0 -64 45.5 -105t187.5 -98q213 -87 282 -148.5 t69 -168.5q0 -120 -102 -192t-277 -72q-88 0 -187.5 25.5t-169.5 64.5z" />
<glyph unicode="t" horiz-adv-x="659" d="M72 891v106h137v283h121v-283h205v-106h-205v-635q0 -98 26.5 -136t87.5 -38q52 0 117 12l17 -90q-64 -20 -138 -20q-115 0 -173 64t-58 214v629h-137z" />
<glyph unicode="u" horiz-adv-x="1138" d="M154 336v661h120v-651q0 -129 57.5 -190.5t180.5 -61.5q63 0 122.5 27.5t107 76.5t76 126t28.5 168v505h119v-997h-119v188q-55 -95 -146 -149.5t-204 -54.5q-166 0 -254 94.5t-88 257.5z" />
<glyph unicode="v" horiz-adv-x="933" d="M10 997h121l336 -870l338 870h119l-398 -997h-118z" />
<glyph unicode="w" horiz-adv-x="1374" d="M6 997h117l264 -831l244 831h110l248 -819l264 819h115l-324 -997h-110l-246 827l-248 -827h-110z" />
<glyph unicode="x" horiz-adv-x="1013" d="M51 0l391 504l-381 493h136l309 -409l313 409h133l-381 -493l392 -504h-136l-321 418l-324 -418h-131z" />
<glyph unicode="y" horiz-adv-x="937" d="M4 997h121l336 -870l338 870h119l-535 -1351h-115l144 354z" />
<glyph unicode="z" horiz-adv-x="1058" d="M113 0v106l663 785h-616v106h760v-106l-662 -785h678v-106h-823z" />
<glyph unicode="{" horiz-adv-x="495" d="M72 612v103h32q86 0 86 102v586q0 98 55 156.5t158 58.5h82v-94h-82q-45 0 -69.5 -28.5t-24.5 -82.5v-584q0 -159 -149 -165q149 -8 149 -168v-584q0 -54 24.5 -82.5t69.5 -28.5h82v-94h-82q-103 0 -158 59.5t-55 157.5v586q0 102 -86 102h-32z" />
<glyph unicode="|" horiz-adv-x="550" d="M225 -410v2048h103v-2048h-103z" />
<glyph unicode="}" horiz-adv-x="495" d="M10 -199h82q45 0 69.5 28.5t24.5 82.5v584q0 160 148 168q-77 3 -112.5 44.5t-35.5 120.5v584q0 54 -24.5 82.5t-69.5 28.5h-82v94h82q103 0 158 -58.5t55 -156.5v-586q0 -102 86 -102h33v-103h-33q-86 0 -86 -102v-586q0 -98 -55 -157.5t-158 -59.5h-82v94z" />
<glyph unicode="~" horiz-adv-x="1009" d="M61 391q39 96 106 161.5t159 65.5q45 0 88 -16t76 -39t64 -46.5t65.5 -39.5t68.5 -16q61 0 102 45t76 125l82 -43q-39 -97 -106 -163.5t-158 -66.5q-45 0 -88 16t-76 38.5t-64 45t-65.5 38.5t-68.5 16q-32 0 -60 -15t-50.5 -44t-36 -51.5t-30.5 -57.5z" />
<glyph unicode="&#xa1;" horiz-adv-x="563" d="M205 1171v193h153v-193h-153zM221 0v410l31 634h59l31 -634v-410h-121z" />
<glyph unicode="&#xa2;" horiz-adv-x="968" d="M102 500q0 140 59 254.5t170 184.5t255 77v174h47v-174q138 -4 233 -35l-20 -98q-130 26 -213 26v-819q68 0 213 27l20 -99q-103 -30 -233 -34v-158h-47v158q-144 7 -255 77t-170 184.5t-59 254.5zM223 500q0 -177 93 -286.5t270 -121.5v815q-177 -12 -270 -121t-93 -286 z" />
<glyph unicode="&#xa3;" horiz-adv-x="1320" d="M164 575v103h186q-38 71 -57.5 111t-40.5 112t-21 137q0 149 128 247.5t343 98.5q227 0 437 -69l-25 -92q-204 55 -377 55q-198 0 -292.5 -59.5t-94.5 -184.5q0 -72 28 -149t91 -207h440v-103h-417q13 -195 -82 -469h737v-106h-971v106h115q98 275 80 469h-207z" />
<glyph unicode="&#xa4;" horiz-adv-x="1482" d="M61 494v86h218q-9 74 -9 100q0 48 6 98h-215v86h234q63 230 260.5 375t466.5 145q83 0 175.5 -13.5t152.5 -33.5l-17 -98q-185 39 -317 39q-222 0 -381 -111.5t-215 -302.5h438v-86h-457q-8 -62 -8 -98q0 -34 8 -100h457v-86h-438q56 -189 215.5 -299.5t380.5 -110.5 q168 0 317 39l17 -98q-155 -48 -328 -48q-267 0 -465.5 144.5t-261.5 372.5h-234z" />
<glyph unicode="&#xa5;" horiz-adv-x="1212" d="M-10 1364h137l479 -694l481 694h136l-408 -596h229v-90h-290l-86 -123v-94h376v-90h-376v-371h-123v371h-375v90h375v94l-84 123h-291v90h229z" />
<glyph unicode="&#xa6;" horiz-adv-x="550" d="M225 -410v871h103v-871h-103zM225 768v870h103v-870h-103z" />
<glyph unicode="&#xa7;" horiz-adv-x="1062" d="M102 -266l39 110q199 -90 367 -90q140 0 222.5 47.5t82.5 139.5q0 77 -60 118t-294 136q-184 74 -252 151.5t-68 198.5q0 148 199 270q-115 62 -157 130t-42 169q0 133 113 201.5t293 68.5q175 0 356 -53l-22 -110q-175 41 -326 41q-147 0 -212 -39.5t-65 -124.5 q0 -73 53.5 -120t217.5 -114q126 -51 200.5 -89t122 -80.5t64 -86.5t16.5 -108q0 -77 -56 -157.5t-144 -133.5q115 -59 157.5 -118t42.5 -154q0 -138 -118.5 -222t-319.5 -84q-101 0 -215 29t-195 74zM276 535q0 -71 54.5 -119.5t216.5 -114.5q9 -4 32.5 -14.5t36.5 -14.5 q76 28 136.5 96t60.5 138q0 33 -9.5 56.5t-27 43.5t-63.5 44t-97 46t-149 62q-85 -34 -138 -90t-53 -133z" />
<glyph unicode="&#xa8;" horiz-adv-x="768" d="M143 1149v178h138v-178h-138zM487 1149v178h138v-178h-138z" />
<glyph unicode="&#xa9;" horiz-adv-x="1570" d="M82 682q0 142 56 272.5t150.5 224.5t224.5 149.5t273 55.5q190 0 352 -94t256.5 -256t94.5 -352t-95 -352.5t-257.5 -257.5t-352.5 -95t-352 95t-256 257.5t-94 352.5zM141 682q0 -129 49.5 -247.5t134 -206t204.5 -139.5t255 -52q179 0 328.5 88.5t233.5 236.5t84 320 t-83.5 319.5t-232.5 235.5t-328 88t-328 -88t-233 -235.5t-84 -319.5zM459 684q0 149 107 251.5t270 102.5q99 0 163 -22l-8 -51q-92 20 -157 20q-138 0 -226 -83.5t-88 -217.5t88 -216.5t226 -82.5q86 0 157 18l8 -49q-70 -22 -163 -22q-163 0 -270 101.5t-107 250.5z" />
<glyph unicode="&#xaa;" horiz-adv-x="753" d="M113 905q0 88 55 135t156 47h219v76q0 152 -189 152q-66 0 -196 -19l-11 64q91 24 209 24q129 0 197 -59t68 -158v-442h-78v80q-30 -42 -85.5 -67t-125.5 -25q-102 0 -160.5 49.5t-58.5 142.5zM190 899q0 -117 142 -117q98 0 154.5 50.5t56.5 138.5v47h-213 q-73 0 -106.5 -28t-33.5 -91z" />
<glyph unicode="&#xab;" horiz-adv-x="1159" d="M72 500l467 497l65 -59l-414 -438l414 -439l-65 -61zM442 500l467 497l66 -59l-414 -438l414 -439l-64 -61z" />
<glyph unicode="&#xac;" horiz-adv-x="1032" d="M82 453v84h745v-537h-102v453h-643z" />
<glyph unicode="&#xad;" horiz-adv-x="722" d="M113 500v114h497v-114h-497z" />
<glyph unicode="&#xae;" horiz-adv-x="1570" d="M82 682q0 114 35.5 221t100.5 193.5t151.5 151.5t193.5 100.5t221 35.5q190 0 352.5 -94t257.5 -256t95 -352t-95 -352.5t-257.5 -257.5t-352.5 -95t-352 95t-256 257.5t-94 352.5zM141 682q0 -129 49.5 -247.5t134 -206t204.5 -139.5t255 -52q179 0 328.5 88.5 t233.5 236.5t84 320t-84 319.5t-233.5 235.5t-328.5 88t-327.5 -88t-232 -235.5t-83.5 -319.5zM532 346v686h312q95 0 152 -58t57 -138q0 -66 -41 -118t-113 -69l223 -303h-67l-221 297h-238v-297h-64zM596 694h248q68 0 106.5 38.5t38.5 103.5q0 63 -42.5 102t-102.5 39 h-248v-283z" />
<glyph unicode="&#xaf;" horiz-adv-x="677" d="M102 1270v73h473v-73h-473z" />
<glyph unicode="&#xb0;" horiz-adv-x="667" d="M113 1163q0 92 64.5 156.5t156.5 64.5t156.5 -64.5t64.5 -156.5t-64.5 -157.5t-156.5 -65.5t-156.5 65.5t-64.5 157.5zM150 1163q0 -73 51.5 -131.5t132.5 -58.5q80 0 132 58.5t52 131.5t-52 132t-132 59q-81 0 -132.5 -58.5t-51.5 -132.5z" />
<glyph unicode="&#xb1;" horiz-adv-x="1222" d="M123 0v94h436v346h-436v97h436v440h103v-440h438v-97h-438v-346h438v-94h-977z" />
<glyph unicode="&#xb2;" horiz-adv-x="1363" d="M0 342v340h340v-340h-340zM0 1024v340h340v-340h-340zM340 0v342h342v-342h-342zM340 682v342h342v-342h340v-340h342v-342h-342v342h-340v340h-342zM682 1024v340h340v-340h-340zM1022 682v342h342v-342h-342z" />
<glyph unicode="&#xb3;" horiz-adv-x="1363" d="M0 342v340h340v-340h-340zM0 1024v340h340v-340h-340zM340 0v342h342v-342h-342zM340 682v342h342v-342h340v-340h342v-342h-342v342h-340v340h-342zM682 1024v340h340v-340h-340zM1022 682v342h342v-342h-342z" />
<glyph unicode="&#xb4;" horiz-adv-x="614" d="M143 1128l197 248h141l-235 -248h-103z" />
<glyph unicode="&#xb5;" horiz-adv-x="1138" d="M154 -354v1351h120v-653q0 -128 57 -189t181 -61q63 0 122.5 27.5t107 76.5t76 126t28.5 168v505h119v-997h-119v188q-55 -95 -146 -149.5t-204 -54.5q-139 0 -222 65v-403h-120z" />
<glyph unicode="&#xb6;" horiz-adv-x="847" d="M51 1106q0 106 75 182t181 76h336v-1364h-88v1292h-158v-1292h-90v848q-106 0 -181 76t-75 182z" />
<glyph unicode="&#xb7;" horiz-adv-x="501" d="M174 573v193h154v-193h-154z" />
<glyph unicode="&#xb8;" horiz-adv-x="610" d="M102 -487l15 53q67 -21 151 -21q69 0 110.5 32.5t41.5 94.5q0 63 -43.5 95t-112.5 32q-57 0 -106 -10l49 211h67l-38 -147q35 4 75 4q92 0 144.5 -48t52.5 -133q0 -86 -61 -141t-166 -55q-95 0 -179 33z" />
<glyph unicode="&#xb9;" horiz-adv-x="1363" d="M0 342v340h340v-340h-340zM0 1024v340h340v-340h-340zM340 0v342h342v-342h-342zM340 682v342h342v-342h340v-340h342v-342h-342v342h-340v340h-342zM682 1024v340h340v-340h-340zM1022 682v342h342v-342h-342z" />
<glyph unicode="&#xba;" horiz-adv-x="788" d="M92 1049q0 140 83 237.5t220 97.5t219 -97.5t82 -237.5t-82 -237t-219 -97t-220 97t-83 237zM170 1049q0 -120 61 -193.5t164 -73.5t164.5 73.5t61.5 193.5t-61.5 193t-164.5 73t-164 -73t-61 -193z" />
<glyph unicode="&#xbb;" horiz-adv-x="1159" d="M184 61l414 439l-414 438l66 59l467 -497l-469 -500zM555 61l414 439l-414 438l66 59l466 -497l-466 -500z" />
<glyph unicode="&#xbc;" horiz-adv-x="1363" d="M0 342v340h340v-340h-340zM0 1024v340h340v-340h-340zM340 0v342h342v-342h-342zM340 682v342h342v-342h340v-340h342v-342h-342v342h-340v340h-342zM682 1024v340h340v-340h-340zM1022 682v342h342v-342h-342z" />
<glyph unicode="&#xbd;" horiz-adv-x="1363" d="M0 342v340h340v-340h-340zM0 1024v340h340v-340h-340zM340 0v342h342v-342h-342zM340 682v342h342v-342h340v-340h342v-342h-342v342h-340v340h-342zM682 1024v340h340v-340h-340zM1022 682v342h342v-342h-342z" />
<glyph unicode="&#xbe;" horiz-adv-x="1363" d="M0 342v340h340v-340h-340zM0 1024v340h340v-340h-340zM340 0v342h342v-342h-342zM340 682v342h342v-342h340v-340h342v-342h-342v342h-340v340h-342zM682 1024v340h340v-340h-340zM1022 682v342h342v-342h-342z" />
<glyph unicode="&#xbf;" horiz-adv-x="1034" d="M123 281q0 74 19 141.5t71 155t120.5 179t190.5 240.5l72 -59q-196 -261 -239 -326q-90 -137 -107 -241q-6 -36 -6 -76q0 -105 63.5 -157t216.5 -52q177 0 367 41l20 -96q-196 -51 -399 -51q-195 0 -292 77t-97 224zM485 1174v190h154v-190h-154z" />
<glyph unicode="&#xc0;" d="M31 0l565 1364h90l567 -1364h-125l-151 381h-670l-151 -381h-125zM348 481h588l-295 733zM348 1729h141l199 -248h-102z" />
<glyph unicode="&#xc1;" d="M31 0l565 1364h90l567 -1364h-125l-151 381h-670l-151 -381h-125zM348 481h588l-295 733zM612 1481l197 248h141l-235 -248h-103z" />
<glyph unicode="&#xc2;" d="M31 0l565 1364h90l567 -1364h-125l-151 381h-670l-151 -381h-125zM348 481h588l-295 733zM377 1481l205 248h123l204 -248h-102l-164 180l-164 -180h-102z" />
<glyph unicode="&#xc3;" d="M31 0l565 1364h90l567 -1364h-125l-151 381h-670l-151 -381h-125zM348 481h588l-295 733zM375 1518q27 60 72 98.5t104 38.5q39 0 78 -19t71 -38t56 -19q17 0 31.5 8t26 23t18.5 27t16 30l82 -35q-68 -139 -176 -139q-39 0 -78 18.5t-71 37t-56 18.5q-50 0 -94 -86z" />
<glyph unicode="&#xc4;" d="M31 0l565 1364h90l567 -1364h-125l-151 381h-670l-151 -381h-125zM348 481h588l-295 733zM401 1487v178h138v-178h-138zM745 1487v178h138v-178h-138z" />
<glyph unicode="&#xc5;" d="M31 0l565 1364h90l567 -1364h-125l-151 381h-670l-151 -381h-125zM348 481h588l-295 733zM494 1595q0 63 43 106.5t106 43.5t106.5 -43.5t43.5 -106.5t-43.5 -107t-106.5 -44t-106 44t-43 107zM541 1595q0 -43 29 -73.5t73 -30.5q43 0 74 30.5t31 73.5t-31 73t-74 30 q-44 0 -73 -30t-29 -73z" />
<glyph unicode="&#xc6;" horiz-adv-x="1726" d="M31 0l567 1364h985v-107h-856l147 -497h658v-107h-627l160 -547h518v-106h-596l-108 381h-572l-151 -381h-125zM348 481h502l-207 733z" />
<glyph unicode="&#xc7;" horiz-adv-x="1294" d="M82 682q0 147 54 275.5t150.5 223t238.5 149t309 54.5q191 0 327 -43l-20 -100q-148 37 -312 37q-180 0 -321 -73.5t-221 -210t-80 -312.5t80.5 -313t222 -211t319.5 -74q156 0 308 37l24 -98q-159 -46 -327 -46q-162 0 -303 55t-239 149.5t-154 224.5t-56 276zM600 -487 l14 53q67 -21 152 -21q69 0 110.5 32.5t41.5 94.5q0 63 -43.5 95t-112.5 32q-58 0 -107 -10l50 211h67l-39 -147q35 4 76 4q92 0 144.5 -48t52.5 -133t-61.5 -140.5t-166.5 -55.5q-94 0 -178 33z" />
<glyph unicode="&#xc8;" horiz-adv-x="1257" d="M205 0v1364h909v-107h-784v-497h733v-107h-733v-547h784v-106h-909zM389 1729h141l199 -248h-102z" />
<glyph unicode="&#xc9;" horiz-adv-x="1257" d="M205 0v1364h909v-107h-784v-497h733v-107h-733v-547h784v-106h-909zM590 1481l196 248h142l-236 -248h-102z" />
<glyph unicode="&#xca;" horiz-adv-x="1257" d="M205 0v1364h909v-107h-784v-497h733v-107h-733v-547h784v-106h-909zM383 1481l205 248h123l204 -248h-102l-164 180l-164 -180h-102z" />
<glyph unicode="&#xcb;" horiz-adv-x="1257" d="M205 0v1364h909v-107h-784v-497h733v-107h-733v-547h784v-106h-909zM428 1487v178h137v-178h-137zM772 1487v178h137v-178h-137z" />
<glyph unicode="&#xcc;" horiz-adv-x="552" d="M0 1729h141l197 -248h-102zM215 0v1364h123v-1364h-123z" />
<glyph unicode="&#xcd;" horiz-adv-x="552" d="M215 0v1364h123v-1364h-123zM219 1481l197 248h143l-235 -248h-105z" />
<glyph unicode="&#xce;" horiz-adv-x="552" d="M10 1481l205 248h123l205 -248h-103l-164 180l-163 -180h-103zM215 0v1364h123v-1364h-123z" />
<glyph unicode="&#xcf;" horiz-adv-x="552" d="M35 1487v178h137v-178h-137zM215 0v1364h123v-1364h-123zM379 1487v178h139v-178h-139z" />
<glyph unicode="&#xd0;" horiz-adv-x="1413" d="M102 631v102h154v631h272q229 0 413 -88t287 -244t103 -350t-103 -350t-287 -244t-413 -88h-272v631h-154zM379 106h168q125 0 242.5 39t210.5 110.5t149.5 182.5t56.5 244t-56.5 244t-149.5 182t-210.5 110t-242.5 39h-168v-524h305v-102h-305v-525z" />
<glyph unicode="&#xd1;" horiz-adv-x="1523" d="M205 0v1364h119l874 -1171v1171h121v-1364h-121l-874 1174v-1174h-119zM469 1518q27 60 72 98.5t104 38.5q39 0 78 -19t71 -38t56 -19q17 0 31.5 8t26 23t18.5 27t16 30l82 -35q-68 -139 -176 -139q-39 0 -78 18.5t-71 37t-56 18.5q-50 0 -94 -86z" />
<glyph unicode="&#xd2;" horiz-adv-x="1511" d="M113 680q0 143 47 271.5t130 224t204.5 152t261.5 56.5t261.5 -56.5t204.5 -152t130 -224t47 -271.5q0 -191 -80 -351t-228 -256t-335 -96t-335 96t-228 256t-80 351zM236 680q0 -170 65.5 -305.5t184.5 -213t270 -77.5t270 77.5t184.5 213t65.5 305.5t-65.5 306 t-184.5 214t-270 78t-270 -78t-184.5 -214t-65.5 -306zM453 1729h141l199 -248h-103z" />
<glyph unicode="&#xd3;" horiz-adv-x="1511" d="M113 680q0 143 47 271.5t130 224t204.5 152t261.5 56.5t261.5 -56.5t204.5 -152t130 -224t47 -271.5q0 -191 -80 -351t-228 -256t-335 -96t-335 96t-228 256t-80 351zM236 680q0 -170 65.5 -305.5t184.5 -213t270 -77.5t270 77.5t184.5 213t65.5 305.5t-65.5 306 t-184.5 214t-270 78t-270 -78t-184.5 -214t-65.5 -306zM707 1481l196 248h144l-236 -248h-104z" />
<glyph unicode="&#xd4;" horiz-adv-x="1511" d="M113 680q0 143 47 271.5t130 224t204.5 152t261.5 56.5t261.5 -56.5t204.5 -152t130 -224t47 -271.5q0 -191 -80 -351t-228 -256t-335 -96t-335 96t-228 256t-80 351zM236 680q0 -170 65.5 -305.5t184.5 -213t270 -77.5t270 77.5t184.5 213t65.5 305.5t-65.5 306 t-184.5 214t-270 78t-270 -78t-184.5 -214t-65.5 -306zM489 1481l205 248h123l205 -248h-102l-164 180l-164 -180h-103z" />
<glyph unicode="&#xd5;" horiz-adv-x="1511" d="M113 680q0 143 47 271.5t130 224t204.5 152t261.5 56.5t261.5 -56.5t204.5 -152t130 -224t47 -271.5q0 -191 -80 -351t-228 -256t-335 -96t-335 96t-228 256t-80 351zM236 680q0 -170 65.5 -305.5t184.5 -213t270 -77.5t270 77.5t184.5 213t65.5 305.5t-65.5 306 t-184.5 214t-270 78t-270 -78t-184.5 -214t-65.5 -306zM477 1518q67 137 176 137q39 0 78.5 -19t71.5 -38t55 -19t42.5 16t28 31t21.5 41l84 -35q-68 -139 -176 -139q-39 0 -78.5 18.5t-71.5 37t-55 18.5q-50 0 -94 -86z" />
<glyph unicode="&#xd6;" horiz-adv-x="1511" d="M113 680q0 143 47 271.5t130 224t204.5 152t261.5 56.5t261.5 -56.5t204.5 -152t130 -224t47 -271.5q0 -191 -80 -351t-228 -256t-335 -96t-335 96t-228 256t-80 351zM236 680q0 -170 65.5 -305.5t184.5 -213t270 -77.5t270 77.5t184.5 213t65.5 305.5t-65.5 306 t-184.5 214t-270 78t-270 -78t-184.5 -214t-65.5 -306zM514 1487v178h137v-178h-137zM858 1487v178h139v-178h-139z" />
<glyph unicode="&#xd7;" horiz-adv-x="968" d="M102 141l310 310l-310 309l74 74l309 -310l310 310l71 -74l-309 -309l309 -310l-71 -71l-310 309l-309 -309z" />
<glyph unicode="&#xd8;" horiz-adv-x="1513" d="M113 29l161 176q-77 96 -119 219t-42 258q0 191 80 351t228 255.5t335 95.5q252 0 432 -172l158 170l55 -49l-162 -178q162 -199 162 -473q0 -143 -47.5 -272t-131 -224.5t-205 -152t-261.5 -56.5q-249 0 -430 173l-158 -173zM236 682q0 -231 116 -391l760 837 q-144 150 -356 150q-151 0 -270 -77.5t-184.5 -213t-65.5 -305.5zM401 233q143 -149 355 -149q151 0 270 78t184.5 214t65.5 306q0 228 -115 387z" />
<glyph unicode="&#xd9;" horiz-adv-x="1443" d="M184 477v887h125v-895q0 -180 114.5 -282.5t299.5 -102.5q181 0 297.5 107t116.5 278v895h123v-887q0 -99 -36 -188t-102 -159t-169.5 -111.5t-229.5 -41.5t-229.5 41.5t-170.5 111.5t-103 159.5t-36 187.5zM440 1729h142l196 -248h-102z" />
<glyph unicode="&#xda;" horiz-adv-x="1443" d="M184 477v887h125v-895q0 -180 114.5 -282.5t299.5 -102.5q181 0 297.5 107t116.5 278v895h123v-887q0 -99 -36 -188t-102 -159t-169.5 -111.5t-229.5 -41.5t-229.5 41.5t-170.5 111.5t-103 159.5t-36 187.5zM653 1481l197 248h141l-235 -248h-103z" />
<glyph unicode="&#xdb;" horiz-adv-x="1443" d="M184 477v887h125v-895q0 -180 114.5 -282.5t299.5 -102.5q181 0 297.5 107t116.5 278v895h123v-887q0 -99 -36 -188t-102 -159t-169.5 -111.5t-229.5 -41.5t-229.5 41.5t-170.5 111.5t-103 159.5t-36 187.5zM455 1481l204 248h123l207 -248h-102l-164 180l-164 -180h-104 z" />
<glyph unicode="&#xdc;" horiz-adv-x="1443" d="M184 477v887h125v-895q0 -180 114.5 -282.5t299.5 -102.5q181 0 297.5 107t116.5 278v895h123v-887q0 -99 -36 -188t-102 -159t-169.5 -111.5t-229.5 -41.5t-229.5 41.5t-170.5 111.5t-103 159.5t-36 187.5zM481 1487v178h137v-178h-137zM825 1487v178h138v-178h-138z " />
<glyph unicode="&#xdd;" horiz-adv-x="1210" d="M-10 1364h135l481 -694l479 694h136l-553 -809v-555h-125v555zM551 1481l197 248h141l-236 -248h-102z" />
<glyph unicode="&#xde;" horiz-adv-x="1288" d="M205 0v1364h125v-285h493q190 0 302 -111.5t112 -269.5t-111.5 -266t-302.5 -108h-493v-324h-125zM330 426h493q136 0 213.5 72t77.5 200q0 124 -85 199.5t-206 75.5h-493v-547z" />
<glyph unicode="&#xdf;" horiz-adv-x="1255" d="M98 899v98h154v60q0 166 93.5 262t258.5 96q155 0 252.5 -85.5t97.5 -217.5q0 -61 -23 -113t-55 -87t-64.5 -65t-55.5 -62t-23 -64q0 -49 29.5 -77t140.5 -81q140 -66 200 -137t60 -178q0 -117 -92 -190.5t-248 -73.5q-158 0 -303 69l33 92q136 -59 268 -59q107 0 165 44 t58 122q0 70 -45 117.5t-168 103.5q-119 56 -168 110.5t-49 141.5q0 48 23 88.5t55.5 71t65 61.5t55.5 74.5t23 95.5q0 86 -66 141.5t-166 55.5q-103 0 -168 -60.5t-65 -171.5v-1081h-119v899h-154z" />
<glyph unicode="&#xe0;" horiz-adv-x="1003" d="M92 276q0 134 84 208.5t240 74.5h336v115q0 235 -291 235q-115 0 -303 -30l-17 98q150 39 324 39q199 0 302 -90.5t103 -243.5v-682h-118v125q-45 -65 -130 -103t-194 -38q-158 0 -247 74t-89 218zM211 268q0 -178 215 -178q151 0 238.5 77.5t87.5 211.5v74h-328 q-112 0 -162.5 -44.5t-50.5 -140.5zM244 1376h141l197 -248h-103z" />
<glyph unicode="&#xe1;" horiz-adv-x="1003" d="M92 276q0 134 84 208.5t240 74.5h336v115q0 235 -291 235q-115 0 -303 -30l-17 98q150 39 324 39q199 0 302 -90.5t103 -243.5v-682h-118v125q-45 -65 -130 -103t-194 -38q-158 0 -247 74t-89 218zM211 268q0 -178 215 -178q151 0 238.5 77.5t87.5 211.5v74h-328 q-112 0 -162.5 -44.5t-50.5 -140.5zM467 1128l197 248h141l-236 -248h-102z" />
<glyph unicode="&#xe2;" horiz-adv-x="1003" d="M92 276q0 134 84 208.5t240 74.5h336v115q0 235 -291 235q-115 0 -303 -30l-17 98q150 39 324 39q199 0 302 -90.5t103 -243.5v-682h-118v125q-45 -65 -130 -103t-194 -38q-158 0 -247 74t-89 218zM211 268q0 -178 215 -178q151 0 238.5 77.5t87.5 211.5v74h-328 q-112 0 -162.5 -44.5t-50.5 -140.5zM213 1128l205 248h123l204 -248h-102l-164 181l-164 -181h-102z" />
<glyph unicode="&#xe3;" horiz-adv-x="1003" d="M98 276q0 134 84 208.5t240 74.5h336v115q0 235 -291 235q-115 0 -303 -30l-17 98q150 39 324 39q199 0 302.5 -90.5t103.5 -243.5v-682h-119v125q-45 -65 -130 -103t-194 -38q-158 0 -247 74t-89 218zM217 268q0 -178 215 -178q151 0 238.5 77.5t87.5 211.5v74h-328 q-112 0 -162.5 -44.5t-50.5 -140.5zM229 1186q27 60 72.5 98.5t104.5 38.5q39 0 77.5 -19t70.5 -38t56 -19q17 0 31.5 8t26 23t18.5 27t16 30l82 -35q-68 -139 -176 -139q-39 0 -78 18.5t-71 37t-56 18.5q-50 0 -94 -86z" />
<glyph unicode="&#xe4;" horiz-adv-x="1003" d="M92 276q0 134 84 208.5t240 74.5h336v115q0 235 -291 235q-115 0 -303 -30l-17 98q150 39 324 39q199 0 302 -90.5t103 -243.5v-682h-118v125q-45 -65 -130 -103t-194 -38q-158 0 -247 74t-89 218zM211 268q0 -178 215 -178q151 0 238.5 77.5t87.5 211.5v74h-328 q-112 0 -162.5 -44.5t-50.5 -140.5zM260 1149v178h137v-178h-137zM604 1149v178h137v-178h-137z" />
<glyph unicode="&#xe5;" horiz-adv-x="1003" d="M92 276q0 134 84 208.5t240 74.5h336v115q0 235 -291 235q-115 0 -303 -30l-17 98q150 39 324 39q199 0 302 -90.5t103 -243.5v-682h-118v125q-45 -65 -130 -103t-194 -38q-158 0 -247 74t-89 218zM211 268q0 -178 215 -178q151 0 238.5 77.5t87.5 211.5v74h-328 q-112 0 -162.5 -44.5t-50.5 -140.5zM319 1247q0 63 43.5 106.5t106.5 43.5t106 -43.5t43 -106.5t-43 -107t-106 -44t-106.5 44t-43.5 107zM367 1247q0 -43 29 -73.5t73 -30.5q43 0 73.5 30.5t30.5 73.5t-30.5 73t-73.5 30q-44 0 -73 -30t-29 -73z" />
<glyph unicode="&#xe6;" horiz-adv-x="1753" d="M92 279q0 134 84 207t240 73h334v115q0 235 -289 235q-115 0 -303 -30l-17 98q150 39 324 39q294 0 377 -193q60 91 154 142t214 51q106 0 191 -41.5t139 -113t82.5 -164t28.5 -197.5v-43h-779q15 -179 117.5 -273t276.5 -94q134 0 303 43l24 -98q-168 -51 -325 -51 q-151 0 -264 59t-177 166q-51 -106 -152 -165.5t-233 -59.5q-159 0 -254.5 76t-95.5 219zM211 270q0 -90 55.5 -135t159.5 -45q159 0 241.5 77t82.5 214v72h-326q-112 0 -162.5 -43.5t-50.5 -139.5zM872 559h656q-12 163 -93.5 256.5t-224.5 93.5q-144 0 -233.5 -94.5 t-104.5 -255.5z" />
<glyph unicode="&#xe7;" horiz-adv-x="966" d="M102 500q0 223 139.5 369.5t372.5 146.5q134 0 250 -39l-20 -98q-102 30 -217 30q-198 0 -302 -110.5t-104 -298.5t104.5 -299t301.5 -111q104 0 217 31l20 -101q-113 -36 -250 -36q-233 0 -372.5 146.5t-139.5 369.5zM428 -487l14 53q67 -21 152 -21q69 0 110 32.5 t41 94.5q0 63 -43 95t-112 32q-58 0 -107 -10l49 211h68l-39 -147q35 4 76 4q92 0 144.5 -48t52.5 -133t-61.5 -140.5t-166.5 -55.5q-94 0 -178 33z" />
<glyph unicode="&#xe8;" horiz-adv-x="1101" d="M98 500q0 140 53.5 256t160 188t247.5 72q106 0 191 -41.5t138.5 -113t82 -164t28.5 -197.5v-43h-778q15 -179 117 -273t276 -94q142 0 304 43l24 -98q-168 -51 -326 -51q-239 0 -378.5 143.5t-139.5 372.5zM221 559h656q-12 163 -93.5 256.5t-224.5 93.5 q-144 0 -233.5 -94.5t-104.5 -255.5zM240 1376h141l197 -248h-103z" />
<glyph unicode="&#xe9;" horiz-adv-x="1101" d="M98 500q0 140 53.5 256t160 188t247.5 72q106 0 191 -41.5t138.5 -113t82 -164t28.5 -197.5v-43h-778q15 -179 117 -273t276 -94q142 0 304 43l24 -98q-168 -51 -326 -51q-239 0 -378.5 143.5t-139.5 372.5zM221 559h656q-12 163 -93.5 256.5t-224.5 93.5 q-144 0 -233.5 -94.5t-104.5 -255.5zM524 1128l197 248h141l-235 -248h-103z" />
<glyph unicode="&#xea;" horiz-adv-x="1101" d="M98 500q0 140 53.5 256t160 188t247.5 72q106 0 191 -41.5t138.5 -113t82 -164t28.5 -197.5v-43h-778q15 -179 117 -273t276 -94q142 0 304 43l24 -98q-168 -51 -326 -51q-239 0 -378.5 143.5t-139.5 372.5zM221 559h656q-12 163 -93.5 256.5t-224.5 93.5 q-144 0 -233.5 -94.5t-104.5 -255.5zM297 1128l205 248h123l204 -248h-102l-164 181l-164 -181h-102z" />
<glyph unicode="&#xeb;" horiz-adv-x="1101" d="M98 500q0 140 53.5 256t160 188t247.5 72q106 0 191 -41.5t138.5 -113t82 -164t28.5 -197.5v-43h-778q15 -179 117 -273t276 -94q142 0 304 43l24 -98q-168 -51 -326 -51q-239 0 -378.5 143.5t-139.5 372.5zM221 559h656q-12 163 -93.5 256.5t-224.5 93.5 q-144 0 -233.5 -94.5t-104.5 -255.5zM324 1149v178h137v-178h-137zM668 1149v178h137v-178h-137z" />
<glyph unicode="&#xec;" horiz-adv-x="466" d="M-43 1376h141l197 -248h-102zM174 0v997h119v-997h-119z" />
<glyph unicode="&#xed;" horiz-adv-x="466" d="M160 1128l196 248h142l-236 -248h-102zM174 0v997h119v-997h-119z" />
<glyph unicode="&#xee;" horiz-adv-x="466" d="M-35 1128l205 248h123l205 -248h-103l-164 181l-163 -181h-103zM174 0v997h119v-997h-119z" />
<glyph unicode="&#xef;" horiz-adv-x="466" d="M8 1149v178h137v-178h-137zM174 0v997h119v-997h-119zM352 1149v178h137v-178h-137z" />
<glyph unicode="&#xf0;" horiz-adv-x="1081" d="M102 500q0 77 15 149t49.5 139.5t84.5 117.5t124.5 80t165.5 30q108 0 189.5 -52.5t129.5 -148.5q-18 172 -135 326l-100 -80l-37 45l100 80q-69 83 -190 178h125q86 -65 137 -121l94 74l37 -45l-94 -74q192 -244 192 -600q0 -128 -28 -238t-82 -194.5t-141 -133 t-197 -48.5q-90 0 -164.5 30t-124.5 80t-84.5 117.5t-50 139.5t-15.5 149zM221 500q0 -115 36 -206.5t110.5 -147.5t177.5 -56t178 57t111 148.5t36 204.5q0 174 -86 291.5t-239 117.5q-103 0 -177.5 -56t-110.5 -147t-36 -206z" />
<glyph unicode="&#xf1;" horiz-adv-x="1148" d="M174 0v997h121v-186q56 95 146 150t202 55q165 0 253.5 -95.5t88.5 -258.5v-662h-119v653q0 128 -57.5 189t-181.5 61q-63 0 -122 -27t-106 -76.5t-75.5 -126t-28.5 -167.5v-506h-121zM317 1186q27 60 72.5 98.5t104.5 38.5q39 0 77.5 -19t70.5 -38t56 -19q50 0 93 88 l81 -35q-68 -139 -176 -139q-39 0 -77.5 18.5t-70.5 37t-56 18.5q-51 0 -95 -86z" />
<glyph unicode="&#xf2;" horiz-adv-x="1134" d="M102 500q0 140 54.5 256t162 188t248.5 72t248.5 -72t162 -188t54.5 -256t-54.5 -256t-162 -188t-248.5 -72t-248.5 72t-162 188t-54.5 256zM223 500q0 -185 93 -297.5t251 -112.5t252 112.5t94 297.5q0 184 -93.5 296.5t-252.5 112.5q-158 0 -251 -112t-93 -297z M264 1376h142l196 -248h-102z" />
<glyph unicode="&#xf3;" horiz-adv-x="1134" d="M102 500q0 140 54.5 256t162 188t248.5 72t248.5 -72t162 -188t54.5 -256t-54.5 -256t-162 -188t-248.5 -72t-248.5 72t-162 188t-54.5 256zM223 500q0 -185 93 -297.5t251 -112.5t252 112.5t94 297.5q0 184 -93.5 296.5t-252.5 112.5q-158 0 -251 -112t-93 -297z M504 1128l196 248h142l-236 -248h-102z" />
<glyph unicode="&#xf4;" horiz-adv-x="1134" d="M102 500q0 140 54.5 256t162 188t248.5 72t248.5 -72t162 -188t54.5 -256t-54.5 -256t-162 -188t-248.5 -72t-248.5 72t-162 188t-54.5 256zM223 500q0 -185 93 -297.5t251 -112.5t252 112.5t94 297.5q0 184 -93.5 296.5t-252.5 112.5q-158 0 -251 -112t-93 -297z M301 1128l205 248h123l205 -248h-103l-164 181l-164 -181h-102z" />
<glyph unicode="&#xf5;" horiz-adv-x="1134" d="M102 500q0 140 54.5 256t162 188t248.5 72t248.5 -72t162 -188t54.5 -256t-54.5 -256t-162 -188t-248.5 -72t-248.5 72t-162 188t-54.5 256zM223 500q0 -185 93 -297.5t251 -112.5t252 112.5t94 297.5q0 184 -93.5 296.5t-252.5 112.5q-158 0 -251 -112t-93 -297z M289 1186q27 60 72 98.5t104 38.5q39 0 78 -19t71 -38t56 -19q17 0 31.5 8t26 23t18.5 27t16 30l82 -35q-68 -139 -176 -139q-39 0 -78 18.5t-71 37t-56 18.5q-50 0 -94 -86z" />
<glyph unicode="&#xf6;" horiz-adv-x="1134" d="M102 500q0 140 54.5 256t162 188t248.5 72t248.5 -72t162 -188t54.5 -256t-54.5 -256t-162 -188t-248.5 -72t-248.5 72t-162 188t-54.5 256zM223 500q0 -185 93 -297.5t251 -112.5t252 112.5t94 297.5q0 184 -93.5 296.5t-252.5 112.5q-158 0 -251 -112t-93 -297z M344 1149v178h137v-178h-137zM688 1149v178h137v-178h-137z" />
<glyph unicode="&#xf7;" horiz-adv-x="1099" d="M113 369v90h874v-90h-874zM444 100q0 44 31.5 75.5t75.5 31.5t75 -31.5t31 -75.5t-31 -75t-75 -31t-75.5 31t-31.5 75zM444 727q0 44 31.5 75.5t75.5 31.5t75 -31.5t31 -75.5t-31 -75t-75 -31t-75.5 31t-31.5 75z" />
<glyph unicode="&#xf8;" horiz-adv-x="1134" d="M102 29l111 125q-111 142 -111 346q0 140 54.5 256t162 188t248.5 72q182 0 307 -119l107 119l51 -45l-110 -125q110 -141 110 -346q0 -140 -54.5 -256t-162 -188t-248.5 -72q-183 0 -307 118l-106 -118zM221 500q0 -149 68 -260l514 575q-94 94 -236 94 q-159 0 -252.5 -112.5t-93.5 -296.5zM332 184q94 -94 235 -94q158 0 252 112.5t94 297.5q0 154 -67 260z" />
<glyph unicode="&#xf9;" horiz-adv-x="1138" d="M154 336v661h120v-651q0 -129 57.5 -190.5t180.5 -61.5q63 0 122.5 27.5t107 76.5t76 126t28.5 168v505h119v-997h-119v188q-55 -95 -146 -149.5t-204 -54.5q-166 0 -254 94.5t-88 257.5zM258 1376h141l197 -248h-102z" />
<glyph unicode="&#xfa;" horiz-adv-x="1138" d="M154 336v661h120v-651q0 -129 57.5 -190.5t180.5 -61.5q63 0 122.5 27.5t107 76.5t76 126t28.5 168v505h119v-997h-119v188q-55 -95 -146 -149.5t-204 -54.5q-166 0 -254 94.5t-88 257.5zM471 1128l197 248h141l-236 -248h-102z" />
<glyph unicode="&#xfb;" horiz-adv-x="1138" d="M154 336v661h120v-651q0 -129 57.5 -190.5t180.5 -61.5q63 0 122.5 27.5t107 76.5t76 126t28.5 168v505h119v-997h-119v188q-55 -95 -146 -149.5t-204 -54.5q-166 0 -254 94.5t-88 257.5zM289 1128l205 248h122l205 -248h-102l-164 181l-164 -181h-102z" />
<glyph unicode="&#xfc;" horiz-adv-x="1138" d="M154 336v661h120v-651q0 -129 57.5 -190.5t180.5 -61.5q63 0 122.5 27.5t107 76.5t76 126t28.5 168v505h119v-997h-119v188q-55 -95 -146 -149.5t-204 -54.5q-166 0 -254 94.5t-88 257.5zM328 1149v178h137v-178h-137zM672 1149v178h137v-178h-137z" />
<glyph unicode="&#xfd;" horiz-adv-x="937" d="M4 997h121l336 -870l338 870h119l-535 -1351h-115l144 354zM397 1128l197 248h141l-235 -248h-103z" />
<glyph unicode="&#xfe;" horiz-adv-x="1163" d="M174 -352v1718h119v-551q51 96 136.5 148.5t193.5 52.5q90 0 164.5 -30t124.5 -80t84 -117.5t49.5 -139.5t15.5 -149t-15 -149t-49.5 -139.5t-84 -117.5t-124 -80t-165.5 -30q-108 0 -193.5 52t-136.5 148v-536h-119zM293 500q0 -113 36 -204.5t111 -148.5t178 -57 t177.5 56t110.5 147.5t36 206.5t-36 206t-110.5 147t-177.5 56q-153 0 -239 -117.5t-86 -291.5z" />
<glyph unicode="&#xff;" horiz-adv-x="937" d="M4 997h121l336 -870l338 870h119l-535 -1351h-115l144 354zM238 1149v178h137v-178h-137zM582 1149v178h137v-178h-137z" />
<glyph unicode="&#x152;" horiz-adv-x="2111" d="M113 682q0 191 80 346t227.5 245.5t335.5 90.5h1212v-107h-786v-497h733v-109h-733v-545h784v-106h-1210q-188 0 -335.5 90.5t-227.5 245.5t-80 346zM236 682q0 -256 144.5 -416t375.5 -160h303v1151h-303q-231 0 -375.5 -159.5t-144.5 -415.5z" />
<glyph unicode="&#x153;" horiz-adv-x="1914" d="M102 500q0 140 54.5 256t162 188t248.5 72q138 0 243 -68.5t163 -183.5q58 116 161 184t240 68q106 0 190.5 -41.5t138 -113t81.5 -164t28 -197.5v-43h-778q15 -179 118 -273t278 -94q134 0 303 43l24 -98q-168 -51 -325 -51q-160 0 -279 67.5t-180 186.5 q-58 -117 -163 -185.5t-243 -68.5q-141 0 -248.5 72t-162 188t-54.5 256zM223 500q0 -185 93 -297.5t251 -112.5t252 112.5t94 297.5q0 184 -93.5 296.5t-252.5 112.5q-158 0 -251 -112t-93 -297zM1036 559h656q-12 163 -93.5 256.5t-224.5 93.5q-144 0 -233.5 -94.5 t-104.5 -255.5z" />
<glyph unicode="&#x178;" horiz-adv-x="1210" d="M-10 1364h135l481 -694l479 694h136l-553 -809v-555h-125v555zM365 1487v178h137v-178h-137zM709 1487v178h137v-178h-137z" />
<glyph unicode="&#x2c6;" horiz-adv-x="737" d="M102 1128l205 248h123l205 -248h-103l-163 181l-164 -181h-103z" />
<glyph unicode="&#x2dc;" horiz-adv-x="759" d="M102 1186q27 60 72.5 98.5t104.5 38.5q39 0 77.5 -19t70.5 -38t56 -19q17 0 31.5 8t26 23t18.5 27t16 30l82 -35q-68 -139 -176 -139q-39 0 -78 18.5t-71 37t-56 18.5q-50 0 -94 -86z" />
<glyph unicode="&#x2000;" horiz-adv-x="872" />
<glyph unicode="&#x2001;" horiz-adv-x="1745" />
<glyph unicode="&#x2002;" horiz-adv-x="872" />
<glyph unicode="&#x2003;" horiz-adv-x="1745" />
<glyph unicode="&#x2004;" horiz-adv-x="581" />
<glyph unicode="&#x2005;" horiz-adv-x="436" />
<glyph unicode="&#x2006;" horiz-adv-x="290" />
<glyph unicode="&#x2007;" horiz-adv-x="290" />
<glyph unicode="&#x2008;" horiz-adv-x="218" />
<glyph unicode="&#x2009;" horiz-adv-x="349" />
<glyph unicode="&#x200a;" horiz-adv-x="96" />
<glyph unicode="&#x2010;" horiz-adv-x="722" d="M113 500v114h497v-114h-497z" />
<glyph unicode="&#x2011;" horiz-adv-x="722" d="M113 500v114h497v-114h-497z" />
<glyph unicode="&#x2012;" horiz-adv-x="722" d="M113 500v114h497v-114h-497z" />
<glyph unicode="&#x2013;" horiz-adv-x="1132" d="M113 500v114h907v-114h-907z" />
<glyph unicode="&#x2014;" horiz-adv-x="1597" d="M113 500v114h1372v-114h-1372z" />
<glyph unicode="&#x2018;" horiz-adv-x="471" d="M174 954v193l72 217h69l-73 -217h86v-193h-154z" />
<glyph unicode="&#x2019;" horiz-adv-x="471" d="M143 1171v193h154v-193l-74 -217h-67l71 217h-84z" />
<glyph unicode="&#x201a;" horiz-adv-x="481" d="M154 0v193h153v-193l-74 -217h-67l72 217h-84z" />
<glyph unicode="&#x201c;" horiz-adv-x="786" d="M174 954v193l72 217h69l-73 -217h86v-193h-154zM489 954v193l72 217h70l-74 -217h86v-193h-154z" />
<glyph unicode="&#x201d;" horiz-adv-x="786" d="M143 1171v193h154v-193l-74 -217h-67l71 217h-84zM459 1171v193h153v-193l-73 -217h-68l72 217h-84z" />
<glyph unicode="&#x201e;" horiz-adv-x="786" d="M154 0v193h153v-193l-74 -217h-67l72 217h-84zM469 0v193h154v-193l-74 -217h-68l72 217h-84z" />
<glyph unicode="&#x2022;" horiz-adv-x="669" d="M113 731q0 92 64.5 156.5t156.5 64.5t157.5 -64.5t65.5 -156.5t-65.5 -157.5t-157.5 -65.5t-156.5 65.5t-64.5 157.5z" />
<glyph unicode="&#x2026;" horiz-adv-x="1482" d="M174 0v193h154v-193h-154zM664 0v193h153v-193h-153zM1155 0v193h154v-193h-154z" />
<glyph unicode="&#x202f;" horiz-adv-x="349" />
<glyph unicode="&#x2039;" horiz-adv-x="788" d="M72 500l469 497l63 -59l-411 -438l411 -439l-63 -61z" />
<glyph unicode="&#x203a;" horiz-adv-x="788" d="M184 61l412 439l-412 438l64 59l469 -497l-469 -500z" />
<glyph unicode="&#x205f;" horiz-adv-x="436" />
<glyph unicode="&#x20ac;" horiz-adv-x="1482" d="M61 494v86h218q-9 74 -9 100q0 48 6 98h-215v86h234q63 230 260.5 375t466.5 145q83 0 175.5 -13.5t152.5 -33.5l-17 -98q-185 39 -317 39q-222 0 -381 -111.5t-215 -302.5h438v-86h-457q-8 -62 -8 -98q0 -34 8 -100h457v-86h-438q56 -189 215.5 -299.5t380.5 -110.5 q168 0 317 39l17 -98q-155 -48 -328 -48q-267 0 -465.5 144.5t-261.5 372.5h-234z" />
<glyph unicode="&#x2122;" horiz-adv-x="1392" d="M72 1315v49h497v-49h-223v-576h-55v576h-219zM707 739v625h53l237 -469l238 469h55v-625h-55v521l-219 -439h-35l-221 439v-521h-53z" />
<glyph unicode="&#xe000;" horiz-adv-x="993" d="M0 0v993h993v-993h-993z" />
<glyph unicode="&#xfb01;" horiz-adv-x="1120" d="M82 899v98h154v109q0 72 17 128t43.5 89.5t64 54.5t74.5 29t79 8q65 0 143 -20l-16 -97q-66 15 -129 15q-158 0 -158 -201v-115h232v-98h-232v-899h-118v899h-154zM827 0v997h119v-997h-119zM827 1163v201h119v-201h-119z" />
<glyph unicode="&#xfb02;" horiz-adv-x="1253" d="M82 899v98h154v109q0 72 17 128t43.5 89.5t64 54.5t74.5 29t79 8q65 0 143 -20l-16 -97q-66 15 -129 15q-158 0 -158 -201v-115h232v-98h-232v-899h-118v899h-154zM809 262v1102h119v-1108q0 -88 35 -127t110 -39h88v-102h-96q-121 0 -188.5 66.5t-67.5 207.5z" />
</font>
</defs>
</svg>
